eztv.wf | eztvstatus.org
Search title:  
TV Packs only
 

Franklin 2024 S01E03 720p x265-T0PAZ EZTV

Episode Breakdown
Franklin
Franklin TV Show S01E03

Season: 1
Episode: 3
Air Date: 12 April, 2024
Download Links
     Torrent Download     Magnet Download
     Anonymous Download
Added 2 months ago by eztv (verified).
Tracker Statistics
Seeds: 13
Peers: 0
Stats generated @ 05:51 on 18th Jun 2024
Torrent Info
Torrent File: Franklin 2024 S01E03 720p x265-T0PAZ[EZTVx.to].mkv
Torrent Hash: EA233A83ECA586E194CBAD3DBD10D9F0A22C49F1
Filesize: 506 MB
Released: 12th Apr 2024

File Format: MKV (Matroska)
Resolution: 1280x720 px
Aspect Ratio: 16:9
Alternate Releases S L
Franklin 2024 S01E03 1080p HEVC x265-MeGusta 28 3
Franklin 2024 S01E03 1080p WEB H264-SuccessfulCrab 12 2
Franklin 2024 S01E03 Pride and Gout 1080p ATVP WEB-DL DDP5 1 Atmos H 264-FLUX 12 2
Franklin 2024 S01E03 MULTI 1080p WEB H264-HiggsBoson 9 3
Franklin 2024 S01E03 XviD-AFG 2 1
Franklin 2024 S01E03 720p x264-FENiX 7 0
Franklin 2024 S01E03 1080p x265-ELiTE 8 2

Franklin S01E03 - Pride and Gout

Summary:

Bad news arrives from America. Franklin finds himself ensnared in the traps of Versailles. Temple bows down before a star.



Franklin 2024 S01E03 720p x265-T0PAZ EZTV
Franklin S1E3 Screenshot


General
Unique ID: 290627949016136052068831095496756453127 (0xDAA4E82F1825842DB7C779E669A85F07)
Complete name: Franklin 2024 S01E03 720p x265-T0PAZ.mkv
Format: Matroska
Format version: Version 4
File size: 506 MiB
Duration: 59 min 45 s
Overall bit rate: 1 183 kb/s
Frame rate: 23.976 FPS
Movie name: Franklin.2024.S01E03
Writing application: Lavf60.16.100
Writing library: Lavf60.16.100
Comment: T0PAZ-Fri-12-Apr-2024,16:52:10,720p,22,faster,Y,9792517,1918,872,2.2
ErrorDetectionType: Per level 1

Video
ID: 1
Format: HEVC
Format/Info: High Efficiency Video Coding
Format profile: Main [email protected]@Main
Codec ID: V_MPEGH/ISO/HEVC
Duration: 59 min 45 s
Bit rate: 711 kb/s
Width: 1 280 pixels
Height: 582 pixels
Display aspect ratio: 2.2:1
Frame rate mode: Constant
Frame rate: 23.976 (24000/1001) FPS
Color space: YUV
Chroma subsampling: 4:2:0 (Type 2)
Bit depth: 10 bits
Bits/(Pixel*Frame): 0.040
Stream size: 304 MiB (60%)
Writing library: x265 0.0:[Linux][GCC 4.8.5][64 bit] 10bit
Encoding settings: cpuid=1111039 / frame-threads=4 / wpp / no-pmode / no-pme / no-psnr / no-ssim / log-level=2 / input-csp=1 / input-res=1280x582 / interlace=0 / total-frames=0 / level-idc=0 / high-tier=1 / uhd-bd=0 / ref=2 / no-allow-non-conformance / no-repeat-headers / annexb / no-aud / no-hrd / info / hash=0 / no-temporal-layers / open-gop / min-keyint=23 / keyint=250 / gop-lookahead=0 / bframes=4 / b-adapt=0 / b-pyramid / bframe-bias=0 / rc-lookahead=15 / lookahead-slices=0 / scenecut=40 / hist-scenecut=0 / radl=0 / no-splice / no-intra-refresh / ctu=64 / min-cu-size=8 / no-rect / no-amp / max-tu-size=32 / tu-inter-depth=1 / tu-intra-depth=1 / limit-tu=0 / rdoq-level=0 / dynamic-rd=0.00 / no-ssim-rd / signhide / no-tskip / nr-intra=0 / nr-inter=0 / no-constrained-intra / strong-intra-smoothing / max-merge=2 / limit-refs=3 / no-limit-modes / me=1 / subme=2 / merange=57 / temporal-mvp / no-frame-dup / no-hme / weightp / no-weightb / no-analyze-src-pics / deblock=0:0 / sao / no-sao-non-deblock / rd=2 / selective-sao=4 / early-skip / rskip / fast-intra / no-tskip-fast / no-cu-lossless / no-b-intra / no-splitrd-skip / rdpenalty=0 / psy-rd=2.00 / psy-rdoq=0.00 / no-rd-refine / no-lossless / cbqpoffs=0 / crqpoffs=0 / rc=crf / crf=22.0 / qcomp=0.60 / qpstep=4 / stats-write=0 / stats-read=0 / ipratio=1.40 / pbratio=1.30 / aq-mode=2 / aq-strength=1.00 / cutree / zone-count=0 / no-strict-cbr / qg-size=32 / no-rc-grain / qpmax=69 / qpmin=0 / no-const-vbv / sar=1 / overscan=0 / videoformat=5 / range=0 / colorprim=1 / transfer=1 / colormatrix=1 / chromaloc=1 / chromaloc-top=2 / chromaloc-bottom=2 / display-window=0 / cll=0,0 / min-luma=0 / max-luma=1023 / log2-max-poc-lsb=8 / vui-timing-info / vui-hrd-info / slices=1 / no-opt-qp-pps / no-opt-ref-list-length-pps / no-multi-pass-opt-rps / scenecut-bias=0.05 / hist-threshold=0.01 / no-opt-cu-delta-qp / no-aq-motion / no-hdr10 / no-hdr10-opt / no-dhdr10-opt / no-idr-recovery-sei / analysis-reuse-level=0 / analysis-save-reuse-level=0 / analysis-load-reuse-level=0 / scale-factor=0 / refine-intra=0 / refine-inter=0 / refine-mv=1 / refine-ctu-distortion=0 / no-limit-sao / ctu-info=0 / no-lowpass-dct / refine-analysis-type=0 / copy-pic=1 / max-ausize-factor=1.0 / no-dynamic-refine / no-single-sei / no-hevc-aq / no-svt / no-field / qp-adaptation-range=1.00 / no-scenecut-aware-qpconformance-window-offsets / right=0 / bottom=0 / decoder-max-rate=0
Default: Yes
Forced: No
Color range: Limited
Color primaries: BT.709
Transfer characteristics: BT.709
Matrix coefficients: BT.709

Audio
ID: 2
Format: AC-3
Format/Info: Audio Coding 3
Commercial name: Dolby Digital
Codec ID: A_AC3
Duration: 59 min 45 s
Bit rate mode: Constant
Bit rate: 448 kb/s
Channel(s): 6 channels
Channel layout: L R C LFE Ls Rs
Sampling rate: 48.0 kHz
Frame rate: 31.250 FPS (1536 SPF)
Bit depth: 32 bits
Compression mode: Lossy
Stream size: 192 MiB (38%)
Writing library: Lavc60.31.102 ac3
Language: English
Service kind: Complete Main
Default: Yes
Forced: No

Text #1
ID: 3
Format: UTF-8
Codec ID: S_TEXT/UTF8
Codec ID/Info: UTF-8 Plain Text
Duration: 57 min 30 s
Language: English
Default: No
Forced: Yes

Text #2
ID: 4
Format: UTF-8
Codec ID: S_TEXT/UTF8
Codec ID/Info: UTF-8 Plain Text
Duration: 57 min 30 s
Language: English
Default: Yes
Forced: Yes
ssl  EZTV RSS EZTV Status | EZTV API | DMCA: [email protected]