eztv.wf | eztvstatus.org
Search title:  
TV Packs only
 

Franklin 2024 S01E04 720p x264-FENiX EZTV

Episode Breakdown
Franklin
Franklin TV Show S01E04

Season: 1
Episode: 4
Air Date: 19 April, 2024
Download Links
     Torrent Download     Magnet Download
     Anonymous Download
Added 3 months ago by eztv (verified).
Tracker Statistics
Seeds: 1
Peers: 0
Stats generated @ 15:09 on 19th Jul 2024
Torrent Info
Torrent File: Franklin 2024 S01E04 720p x264-FENiX[EZTVx.to].mkv
Torrent Hash: 1FFAA90FA033FD8CE8F9BFCA6EF531F109E1478E
Filesize: 691 MB
Released: 19th Apr 2024

File Format: MKV (Matroska)
Resolution: 1280x720 px
Aspect Ratio: 16:9
Alternate Releases S L
Franklin 2024 S01E04 1080p WEB H264-SuccessfulCrab 11 2
Franklin 2024 S01E04 1080p HEVC x265-MeGusta 20 1
Franklin 2024 S01E04 XviD-AFG 3 1
Franklin 2024 S01E04 720p x265-T0PAZ 3 0
Franklin 2024 S01E04 1080p x265-ELiTE 5 0
Franklin 2024 S01E04 Small Revenge 1080p ATVP WEB-DL DDP5 1 Atmos H 264-FLUX 5 2
Franklin 2024 S01E04 Small Revenge 720p ATVP WEB-DL DDP5 1 Atmos H 264-FLUX 4 0

Franklin S01E04 - Small Revenge

Summary:

Franklin pays back an insult—and receives the favor of a king. A new lover catches his eye, and an old rival turns up to thwart him.



Franklin 2024 S01E04 720p x264-FENiX EZTV
Franklin S1E4 Screenshot


General
Unique ID: 100253973122578563246199273652478302004 (0x4B6C367FD4E94F018091DD238B085734)
Complete name: Franklin 2024 S01E04 720p x264-FENiX.mkv
Format: Matroska
Format version: Version 4
File size: 691 MiB
Duration: 1 h 0 min
Overall bit rate: 1 601 kb/s
Frame rate: 23.976 FPS
Movie name: Franklin.2024.S01E04
Writing application: Lavf60.16.100
Writing library: Lavf60.16.100
Comment: FENiX-Fri-19-Apr-2024,02:44:44,720p,22,fast,N,9802486,1918,872,2.2
ErrorDetectionType: Per level 1

Video
ID: 1
Format: AVC
Format/Info: Advanced Video Codec
Format profile: [email protected]
Format settings: CABAC / 4 Ref Frames
Format settings, CABAC: Yes
Format settings, Reference frames: 4 frames
Codec ID: V_MPEG4/ISO/AVC
Duration: 1 h 0 min
Bit rate: 1 121 kb/s
Width: 1 280 pixels
Height: 582 pixels
Display aspect ratio: 2.2:1
Frame rate mode: Constant
Frame rate: 23.976 (24000/1001) FPS
Color space: YUV
Chroma subsampling: 4:2:0
Bit depth: 8 bits
Scan type: Progressive
Bits/(Pixel*Frame): 0.063
Stream size: 484 MiB (70%)
Writing library: x264 core 164
Encoding settings: cabac=1 / ref=2 / deblock=1:0:0 / analyse=0x3:0x113 / me=hex / subme=6 / psy=1 / psy_rd=1.00:0.00 / mixed_ref=1 / me_range=16 / chroma_me=1 / trellis=1 / 8x8dct=1 / cqm=0 / deadzone=21,11 / fast_pskip=1 / chroma_qp_offset=-2 / threads=18 / lookahead_threads=3 / sliced_threads=0 / nr=0 / decimate=1 / interlaced=0 / bluray_compat=0 / constrained_intra=0 / bframes=3 / b_pyramid=2 / b_adapt=1 / b_bias=0 / direct=1 / weightb=1 / open_gop=0 / weightp=1 / keyint=250 / keyint_min=23 / scenecut=40 / intra_refresh=0 / rc_lookahead=30 / rc=crf / mbtree=1 / crf=22.0 / qcomp=0.60 / qpmin=0 / qpmax=69 / qpstep=4 / ip_ratio=1.40 / aq=1:1.00
Default: Yes
Forced: No
Color range: Limited
Color primaries: BT.709
Transfer characteristics: BT.709
Matrix coefficients: BT.709

Audio
ID: 2
Format: AC-3
Format/Info: Audio Coding 3
Commercial name: Dolby Digital
Codec ID: A_AC3
Duration: 1 h 0 min
Bit rate mode: Constant
Bit rate: 448 kb/s
Channel(s): 6 channels
Channel layout: L R C LFE Ls Rs
Sampling rate: 48.0 kHz
Frame rate: 31.250 FPS (1536 SPF)
Bit depth: 32 bits
Compression mode: Lossy
Stream size: 193 MiB (28%)
Writing library: Lavc60.31.102 ac3
Language: English
Service kind: Complete Main
Default: Yes
Forced: No

Text #1
ID: 3
Format: UTF-8
Codec ID: S_TEXT/UTF8
Codec ID/Info: UTF-8 Plain Text
Duration: 58 min 11 s
Language: English
Default: No
Forced: Yes

Text #2
ID: 4
Format: UTF-8
Codec ID: S_TEXT/UTF8
Codec ID/Info: UTF-8 Plain Text
Duration: 56 min 32 s
Language: English
Default: Yes
Forced: Yes
ssl  EZTV RSS EZTV Status | EZTV API | DMCA: [email protected]