eztv.wf | eztvstatus.org
Search title:  
TV Packs only
 

Jane 2023 S02E03 Chlamyphorus truncatus 720p ATVP WEB-DL DDP5 1 Atmos H 264-FLUX EZTV

Episode Breakdown
Jane
Jane TV Show S02E03

Season: 2
Episode: 3
Air Date: 19 April, 2024
Download Links
     Torrent Download     Magnet Download
     Anonymous Download
Added 1 month ago by eztv (verified).
Tracker Statistics
Seeds: 5
Peers: 2
Stats generated @ 05:52 on 18th Jun 2024
Torrent Info
Torrent File: Jane 2023 S02E03 Chlamyphorus truncatus 720p ATVP WEB-DL DDP5 1 Atmos H 264-FLUX[EZTVx.to].mkv
Torrent Hash: DB92C88AEB8AB37CB1CFBCE8E6EB6D08DD1A57F7
Filesize: 577 MB
Released: 20th Apr 2024

File Format: MKV (Matroska)
Resolution: 1280x720 px
Aspect Ratio: 16:9

Jane S02E03 - Chlamyphorus truncatus

Summary:

The three friends use their underground vessel to observe the elusive pink fairy armadillo, but a garden problem stops them in their tracks.



Jane 2023 S02E03 Chlamyphorus truncatus 720p ATVP WEB-DL DDP5 1 Atmos H 264-FLUX EZTV
Jane S2E3 Screenshot


General
Unique ID: 176595323497503061547435004944117448744 (0x84DB05AC0858AA007847FBA85774C028)
Complete name: Jane 2023 S02E03 Chlamyphorus truncatus 720p ATVP WEB-DL DDP5 1 Atmos H 264-FLUX.mkv
Format: Matroska
Format version: Version 4
File size: 577 MiB
Duration: 22 min 32 s
Overall bit rate: 3 580 kb/s
Frame rate: 23.976 FPS
Writing application: mkvmerge v83.0 ('Circle Of Friends') 64-bit
Writing library: libebml v1.4.5 + libmatroska v1.7.1

Video
ID: 1
Format: AVC
Format/Info: Advanced Video Codec
Format profile: [email protected]
Format settings: CABAC / 5 Ref Frames
Format settings, CABAC: Yes
Format settings, Reference frames: 5 frames
Codec ID: V_MPEG4/ISO/AVC
Duration: 22 min 32 s
Bit rate: 2 802 kb/s
Width: 1 356 pixels
Height: 678 pixels
Display aspect ratio: 2.000
Frame rate mode: Constant
Frame rate: 23.976 (24000/1001) FPS
Color space: YUV
Chroma subsampling: 4:2:0
Bit depth: 8 bits
Scan type: Progressive
Bits/(Pixel*Frame): 0.127
Stream size: 452 MiB (78%)
Language: English
Default: Yes
Forced: No
Color range: Limited
Color primaries: BT.709
Transfer characteristics: BT.709
Matrix coefficients: BT.709

Audio
ID: 2
Format: E-AC-3 JOC
Format/Info: Enhanced AC-3 with Joint Object Coding
Commercial name: Dolby Digital Plus with Dolby Atmos
Codec ID: A_EAC3
Duration: 22 min 32 s
Bit rate mode: Constant
Bit rate: 768 kb/s
Channel(s): 6 channels
Channel layout: L R C LFE Ls Rs
Sampling rate: 48.0 kHz
Frame rate: 31.250 FPS (1536 SPF)
Compression mode: Lossy
Stream size: 124 MiB (21%)
Language: English
Service kind: Complete Main
Default: Yes
Forced: No
Complexity index: 16
Number of dynamic objects: 15
Bed channel count: 1 channel
Bed channel configuration: LFE

Text #1
ID: 3
Format: UTF-8
Codec ID: S_TEXT/UTF8
Codec ID/Info: UTF-8 Plain Text
Duration: 20 min 57 s
Bit rate: 100 b/s
Frame rate: 0.324 FPS
Count of elements: 407
Stream size: 15.5 KiB (0%)
Language: English
Default: No
Forced: No

Text #2
ID: 4
Format: UTF-8
Codec ID: S_TEXT/UTF8
Codec ID/Info: UTF-8 Plain Text
Duration: 21 min 33 s
Bit rate: 110 b/s
Frame rate: 0.360 FPS
Count of elements: 466
Stream size: 17.5 KiB (0%)
Title: SDH
Language: English
Default: No
Forced: No

Text #3
ID: 5
Format: UTF-8
Codec ID: S_TEXT/UTF8
Codec ID/Info: UTF-8 Plain Text
Duration: 21 min 40 s
Bit rate: 146 b/s
Frame rate: 0.314 FPS
Count of elements: 408
Stream size: 23.2 KiB (0%)
Language: Arabic
Default: No
Forced: No

Text #4
ID: 6
Format: UTF-8
Codec ID: S_TEXT/UTF8
Codec ID/Info: UTF-8 Plain Text
Duration: 21 min 40 s
Bit rate: 128 b/s
Frame rate: 0.236 FPS
Count of elements: 307
Stream size: 20.4 KiB (0%)
Language: Bulgarian
Default: No
Forced: No

Text #5
ID: 7
Format: UTF-8
Codec ID: S_TEXT/UTF8
Codec ID/Info: UTF-8 Plain Text
Duration: 21 min 40 s
Bit rate: 84 b/s
Frame rate: 0.314 FPS
Count of elements: 409
Stream size: 13.4 KiB (0%)
Title: Simplified
Language: Chinese (Simplified)
Default: No
Forced: No

Text #6
ID: 8
Format: UTF-8
Codec ID: S_TEXT/UTF8
Codec ID/Info: UTF-8 Plain Text
Duration: 21 min 45 s
Bit rate: 82 b/s
Frame rate: 0.315 FPS
Count of elements: 411
Stream size: 13.1 KiB (0%)
Title: Traditional
Language: Chinese (Traditional)
Default: No
Forced: No

Text #7
ID: 9
Format: UTF-8
Codec ID: S_TEXT/UTF8
Codec ID/Info: UTF-8 Plain Text
Duration: 21 min 40 s
Bit rate: 86 b/s
Frame rate: 0.298 FPS
Count of elements: 387
Stream size: 13.7 KiB (0%)
Language: Czech
Default: No
Forced: No

Text #8
ID: 10
Format: UTF-8
Codec ID: S_TEXT/UTF8
Codec ID/Info: UTF-8 Plain Text
Duration: 21 min 40 s
Bit rate: 79 b/s
Frame rate: 0.240 FPS
Count of elements: 312
Stream size: 12.6 KiB (0%)
Language: Danish
Default: No
Forced: No

Text #9
ID: 11
Format: UTF-8
Codec ID: S_TEXT/UTF8
Codec ID/Info: UTF-8 Plain Text
Duration: 21 min 59 s
Bit rate: 102 b/s
Frame rate: 0.300 FPS
Count of elements: 396
Stream size: 16.5 KiB (0%)
Language: German
Default: No
Forced: No

Text #10
ID: 12
Format: UTF-8
Codec ID: S_TEXT/UTF8
Codec ID/Info: UTF-8 Plain Text
Duration: 21 min 45 s
Bit rate: 145 b/s
Frame rate: 0.286 FPS
Count of elements: 374
Stream size: 23.1 KiB (0%)
Language: Greek
Default: No
Forced: No

Text #11
ID: 13
Format: UTF-8
Codec ID: S_TEXT/UTF8
Codec ID/Info: UTF-8 Plain Text
Duration: 21 min 40 s
Bit rate: 89 b/s
Frame rate: 0.313 FPS
Count of elements: 407
Stream size: 14.3 KiB (0%)
Title: Latin American
Language: Spanish (Latin America)
Default: No
Forced: No

Text #12
ID: 14
Format: UTF-8
Codec ID: S_TEXT/UTF8
Codec ID/Info: UTF-8 Plain Text
Duration: 21 min 54 s
Bit rate: 94 b/s
Frame rate: 0.313 FPS
Count of elements: 411
Stream size: 15.2 KiB (0%)
Language: Spanish (ES)
Default: No
Forced: No

Text #13
ID: 15
Format: UTF-8
Codec ID: S_TEXT/UTF8
Codec ID/Info: UTF-8 Plain Text
Duration: 21 min 40 s
Bit rate: 80 b/s
Frame rate: 0.271 FPS
Count of elements: 353
Stream size: 12.8 KiB (0%)
Language: Estonian
Default: No
Forced: No

Text #14
ID: 16
Format: UTF-8
Codec ID: S_TEXT/UTF8
Codec ID/Info: UTF-8 Plain Text
Duration: 21 min 40 s
Bit rate: 79 b/s
Frame rate: 0.307 FPS
Count of elements: 399
Stream size: 12.7 KiB (0%)
Language: Finnish
Default: No
Forced: No

Text #15
ID: 17
Format: UTF-8
Codec ID: S_TEXT/UTF8
Codec ID/Info: UTF-8 Plain Text
Duration: 21 min 36 s
Bit rate: 90 b/s
Frame rate: 0.329 FPS
Count of elements: 427
Stream size: 14.3 KiB (0%)
Title: Canadian
Language: French (CA)
Default: No
Forced: No

Text #16
ID: 18
Format: UTF-8
Codec ID: S_TEXT/UTF8
Codec ID/Info: UTF-8 Plain Text
Duration: 21 min 36 s
Bit rate: 90 b/s
Frame rate: 0.329 FPS
Count of elements: 427
Stream size: 14.3 KiB (0%)
Language: French (FR)
Default: No
Forced: No

Text #17
ID: 19
Format: UTF-8
Codec ID: S_TEXT/UTF8
Codec ID/Info: UTF-8 Plain Text
Duration: 21 min 45 s
Bit rate: 136 b/s
Frame rate: 0.314 FPS
Count of elements: 410
Stream size: 21.7 KiB (0%)
Language: Hebrew
Default: No
Forced: No

Text #18
ID: 20
Format: UTF-8
Codec ID: S_TEXT/UTF8
Codec ID/Info: UTF-8 Plain Text
Duration: 21 min 45 s
Bit rate: 254 b/s
Frame rate: 0.316 FPS
Count of elements: 412
Stream size: 40.5 KiB (0%)
Language: Hindi
Default: No
Forced: No

Text #19
ID: 21
Format: UTF-8
Codec ID: S_TEXT/UTF8
Codec ID/Info: UTF-8 Plain Text
Duration: 21 min 40 s
Bit rate: 90 b/s
Frame rate: 0.309 FPS
Count of elements: 402
Stream size: 14.3 KiB (0%)
Language: Hungarian
Default: No
Forced: No

Text #20
ID: 22
Format: UTF-8
Codec ID: S_TEXT/UTF8
Codec ID/Info: UTF-8 Plain Text
Duration: 21 min 40 s
Bit rate: 103 b/s
Frame rate: 0.314 FPS
Count of elements: 409
Stream size: 16.5 KiB (0%)
Language: Indonesian
Default: No
Forced: No

Text #21
ID: 23
Format: UTF-8
Codec ID: S_TEXT/UTF8
Codec ID/Info: UTF-8 Plain Text
Duration: 21 min 54 s
Bit rate: 91 b/s
Frame rate: 0.309 FPS
Count of elements: 406
Stream size: 14.6 KiB (0%)
Language: Italian
Default: No
Forced: No

Text #22
ID: 24
Format: UTF-8
Codec ID: S_TEXT/UTF8
Codec ID/Info: UTF-8 Plain Text
Duration: 21 min 58 s
Bit rate: 73 b/s
Frame rate: 0.303 FPS
Count of elements: 400
Stream size: 11.8 KiB (0%)
Language: Japanese
Default: No
Forced: No

Text #23
ID: 25
Format: UTF-8
Codec ID: S_TEXT/UTF8
Codec ID/Info: UTF-8 Plain Text
Duration: 21 min 45 s
Bit rate: 100 b/s
Frame rate: 0.316 FPS
Count of elements: 412
Stream size: 16.0 KiB (0%)
Language: Korean
Default: No
Forced: No

Text #24
ID: 26
Format: UTF-8
Codec ID: S_TEXT/UTF8
Codec ID/Info: UTF-8 Plain Text
Duration: 21 min 40 s
Bit rate: 92 b/s
Frame rate: 0.311 FPS
Count of elements: 404
Stream size: 14.7 KiB (0%)
Language: Lithuanian
Default: No
Forced: No

Text #25
ID: 27
Format: UTF-8
Codec ID: S_TEXT/UTF8
Codec ID/Info: UTF-8 Plain Text
Duration: 21 min 40 s
Bit rate: 96 b/s
Frame rate: 0.306 FPS
Count of elements: 398
Stream size: 15.3 KiB (0%)
Language: Latvian
Default: No
Forced: No

Text #26
ID: 28
Format: UTF-8
Codec ID: S_TEXT/UTF8
Codec ID/Info: UTF-8 Plain Text
Duration: 21 min 40 s
Bit rate: 98 b/s
Frame rate: 0.314 FPS
Count of elements: 409
Stream size: 15.6 KiB (0%)
Language: Malay
Default: No
Forced: No

Text #27
ID: 29
Format: UTF-8
Codec ID: S_TEXT/UTF8
Codec ID/Info: UTF-8 Plain Text
Duration: 21 min 40 s
Bit rate: 84 b/s
Frame rate: 0.261 FPS
Count of elements: 340
Stream size: 13.4 KiB (0%)
Language: Dutch
Default: No
Forced: No

Text #28
ID: 30
Format: UTF-8
Codec ID: S_TEXT/UTF8
Codec ID/Info: UTF-8 Plain Text
Duration: 21 min 40 s
Bit rate: 83 b/s
Frame rate: 0.267 FPS
Count of elements: 347
Stream size: 13.2 KiB (0%)
Language: Norwegian
Default: No
Forced: No

Text #29
ID: 31
Format: UTF-8
Codec ID: S_TEXT/UTF8
Codec ID/Info: UTF-8 Plain Text
Duration: 21 min 40 s
Bit rate: 83 b/s
Frame rate: 0.310 FPS
Count of elements: 403
Stream size: 13.2 KiB (0%)
Language: Polish
Default: No
Forced: No

Text #30
ID: 32
Format: UTF-8
Codec ID: S_TEXT/UTF8
Codec ID/Info: UTF-8 Plain Text
Duration: 21 min 40 s
Bit rate: 92 b/s
Frame rate: 0.311 FPS
Count of elements: 405
Stream size: 14.6 KiB (0%)
Language: Portuguese
Default: No
Forced: No

Text #31
ID: 33
Format: UTF-8
Codec ID: S_TEXT/UTF8
Codec ID/Info: UTF-8 Plain Text
Duration: 21 min 40 s
Bit rate: 86 b/s
Frame rate: 0.266 FPS
Count of elements: 346
Stream size: 13.7 KiB (0%)
Title: Brazilian
Language: Portuguese (BR)
Default: No
Forced: No

Text #32
ID: 34
Format: UTF-8
Codec ID: S_TEXT/UTF8
Codec ID/Info: UTF-8 Plain Text
Duration: 21 min 45 s
Bit rate: 136 b/s
Frame rate: 0.297 FPS
Count of elements: 388
Stream size: 21.8 KiB (0%)
Language: Russian
Default: No
Forced: No

Text #33
ID: 35
Format: UTF-8
Codec ID: S_TEXT/UTF8
Codec ID/Info: UTF-8 Plain Text
Duration: 21 min 40 s
Bit rate: 81 b/s
Frame rate: 0.310 FPS
Count of elements: 403
Stream size: 12.9 KiB (0%)
Language: Slovak
Default: No
Forced: No

Text #34
ID: 36
Format: UTF-8
Codec ID: S_TEXT/UTF8
Codec ID/Info: UTF-8 Plain Text
Duration: 21 min 40 s
Bit rate: 74 b/s
Frame rate: 0.232 FPS
Count of elements: 302
Stream size: 11.8 KiB (0%)
Language: Slovenian
Default: No
Forced: No

Text #35
ID: 37
Format: UTF-8
Codec ID: S_TEXT/UTF8
Codec ID/Info: UTF-8 Plain Text
Duration: 21 min 40 s
Bit rate: 86 b/s
Frame rate: 0.243 FPS
Count of elements: 316
Stream size: 13.8 KiB (0%)
Language: Swedish
Default: No
Forced: No

Text #36
ID: 38
Format: UTF-8
Codec ID: S_TEXT/UTF8
Codec ID/Info: UTF-8 Plain Text
Duration: 21 min 40 s
Bit rate: 308 b/s
Frame rate: 0.315 FPS
Count of elements: 410
Stream size: 49.0 KiB (0%)
Language: Tamil
Default: No
Forced: No

Text #37
ID: 39
Format: UTF-8
Codec ID: S_TEXT/UTF8
Codec ID/Info: UTF-8 Plain Text
Duration: 21 min 40 s
Bit rate: 275 b/s
Frame rate: 0.315 FPS
Count of elements: 410
Stream size: 43.7 KiB (0%)
Language: Telugu
Default: No
Forced: No

Text #38
ID: 40
Format: UTF-8
Codec ID: S_TEXT/UTF8
Codec ID/Info: UTF-8 Plain Text
Duration: 21 min 40 s
Bit rate: 231 b/s
Frame rate: 0.315 FPS
Count of elements: 410
Stream size: 36.7 KiB (0%)
Language: Thai
Default: No
Forced: No

Text #39
ID: 41
Format: UTF-8
Codec ID: S_TEXT/UTF8
Codec ID/Info: UTF-8 Plain Text
Duration: 21 min 40 s
Bit rate: 95 b/s
Frame rate: 0.298 FPS
Count of elements: 388
Stream size: 15.1 KiB (0%)
Language: Turkish
Default: No
Forced: No

Text #40
ID: 42
Format: UTF-8
Codec ID: S_TEXT/UTF8
Codec ID/Info: UTF-8 Plain Text
Duration: 21 min 45 s
Bit rate: 143 b/s
Frame rate: 0.316 FPS
Count of elements: 412
Stream size: 22.9 KiB (0%)
Language: Ukrainian
Default: No
Forced: No

Text #41
ID: 43
Format: UTF-8
Codec ID: S_TEXT/UTF8
Codec ID/Info: UTF-8 Plain Text
Duration: 21 min 40 s
Bit rate: 120 b/s
Frame rate: 0.315 FPS
Count of elements: 410
Stream size: 19.2 KiB (0%)
Language: Vietnamese
Default: No
Forced: No

Text #42
ID: 44
Format: UTF-8
Codec ID: S_TEXT/UTF8
Codec ID/Info: UTF-8 Plain Text
Duration: 21 min 45 s
Bit rate: 80 b/s
Frame rate: 0.315 FPS
Count of elements: 411
Stream size: 12.9 KiB (0%)
Title: Traditional
Language: Cantonese (Hant)
Default: No
Forced: No

Menu
00:00:00.000: en:Studio Logo
00:00:08.843: en:Main
00:21:34.666: en:Credits
ssl  EZTV RSS EZTV Status | EZTV API | DMCA: [email protected]