eztv.wf | eztvstatus.org
Search title:  
TV Packs only
 

House of the Owl S01E03 It is a Necklace 720p DSNP WEB-DL DD 5 1 H 264-playWEB EZTV

Episode Breakdown
House of the Owl
House of the Owl TV Show S01E03

Season: 1
Episode: 3
Air Date: 24 April, 2024
Download Links
     Torrent Download     Magnet Download
     Anonymous Download
Added 1 month ago by eztv (verified).
Tracker Statistics
Seeds: 0
Peers: 2
Stats generated @ 16:04 on 17th Jun 2024
Torrent Info
Torrent File: House of the Owl S01E03 It is a Necklace 720p DSNP WEB-DL DD 5 1 H 264-playWEB[EZTVx.to].mkv
Torrent Hash: 39215BA3709F8EAC69D6353BD422A34CC3947AD1
Filesize: 849 MB
Released: 24th Apr 2024

File Format: MKV (Matroska)
Resolution: 1280x720 px
Aspect Ratio: 16:9
Alternate Releases S L
House of the Owl S01E03 1080p WEB h264-EDITH 1 3
House of the Owl S01E03 XviD-AFG 1 0
House of the Owl S01E03 1080p HEVC x265-MeGusta 4 1

House of the Owl S01E03 - It is a Necklace

Summary:

Ryutaro learns more about his children's lives. Meanwhile Yumiko's perfect life shows cracks.



House of the Owl S01E03 It is a Necklace 720p DSNP WEB-DL DD 5 1 H 264-playWEB EZTV
House of the Owl S1E3 Screenshot


General
Unique ID: 66804489320122901650517259211536905380 (0x3242139EAFB77504A5D7816FAF7CB4A4)
Complete name: House of the Owl S01E03 It is a Necklace 720p DSNP WEB-DL DD 5 1 H 264-playWEB.mkv
Format: Matroska
Format version: Version 4
File size: 849 MiB
Duration: 41 min 3 s
Overall bit rate mode: Variable
Overall bit rate: 2 890 kb/s
Frame rate: 23.976 FPS
Writing application: mkvmerge v83.0 ('Circle Of Friends') 64-bit
Writing library: libebml v1.4.5 + libmatroska v1.7.1

Video
ID: 1
Format: AVC
Format/Info: Advanced Video Codec
Format profile: [email protected]
Format settings: CABAC / 4 Ref Frames
Format settings, CABAC: Yes
Format settings, Reference frames: 4 frames
Codec ID: V_MPEG4/ISO/AVC
Duration: 41 min 3 s
Bit rate mode: Variable
Bit rate: 2 630 kb/s
Maximum bit rate: 6 375 kb/s
Width: 1 280 pixels
Height: 720 pixels
Display aspect ratio: 16:9
Frame rate mode: Constant
Frame rate: 23.976 (24000/1001) FPS
Color space: YUV
Chroma subsampling: 4:2:0
Bit depth: 8 bits
Scan type: Progressive
Bits/(Pixel*Frame): 0.119
Time code of first frame: 00:00:00:0000000000
Stream size: 772 MiB (91%)
Default: Yes
Forced: No
Color range: Limited
Color primaries: BT.709
Transfer characteristics: BT.709
Matrix coefficients: BT.709

Audio
ID: 2
Format: E-AC-3
Format/Info: Enhanced AC-3
Commercial name: Dolby Digital Plus
Codec ID: A_EAC3
Duration: 41 min 3 s
Bit rate mode: Constant
Bit rate: 256 kb/s
Channel(s): 6 channels
Channel layout: L R C LFE Ls Rs
Sampling rate: 48.0 kHz
Frame rate: 31.250 FPS (1536 SPF)
Compression mode: Lossy
Stream size: 75.2 MiB (9%)
Language: Japanese
Service kind: Complete Main
Default: Yes
Forced: No

Text #1
ID: 3
Format: UTF-8
Codec ID: S_TEXT/UTF8
Codec ID/Info: UTF-8 Plain Text
Duration: 38 min 39 s
Bit rate: 49 b/s
Frame rate: 0.224 FPS
Count of elements: 520
Stream size: 14.0 KiB (0%)
Language: Danish
Default: No
Forced: No

Text #2
ID: 4
Format: UTF-8
Codec ID: S_TEXT/UTF8
Codec ID/Info: UTF-8 Plain Text
Duration: 38 min 39 s
Bit rate: 52 b/s
Frame rate: 0.207 FPS
Count of elements: 479
Stream size: 14.8 KiB (0%)
Language: German
Default: No
Forced: No

Text #3
ID: 5
Format: UTF-8
Codec ID: S_TEXT/UTF8
Codec ID/Info: UTF-8 Plain Text
Duration: 38 min 39 s
Bit rate: 51 b/s
Frame rate: 0.226 FPS
Count of elements: 524
Stream size: 14.6 KiB (0%)
Language: English
Default: No
Forced: No

Text #4
ID: 6
Format: UTF-8
Codec ID: S_TEXT/UTF8
Codec ID/Info: UTF-8 Plain Text
Duration: 40 min 49 s
Bit rate: 54 b/s
Frame rate: 0.231 FPS
Count of elements: 566
Stream size: 16.3 KiB (0%)
Title: SDH
Language: English
Default: No
Forced: No

Text #5
ID: 7
Format: UTF-8
Codec ID: S_TEXT/UTF8
Codec ID/Info: UTF-8 Plain Text
Duration: 38 min 39 s
Bit rate: 50 b/s
Frame rate: 0.222 FPS
Count of elements: 514
Stream size: 14.3 KiB (0%)
Title: Latin American
Language: Spanish
Default: No
Forced: No

Text #6
ID: 8
Format: UTF-8
Codec ID: S_TEXT/UTF8
Codec ID/Info: UTF-8 Plain Text
Duration: 39 min 14 s
Bit rate: 51 b/s
Frame rate: 0.199 FPS
Count of elements: 469
Stream size: 14.7 KiB (0%)
Title: European
Language: Spanish
Default: No
Forced: No

Text #7
ID: 9
Format: UTF-8
Codec ID: S_TEXT/UTF8
Codec ID/Info: UTF-8 Plain Text
Duration: 38 min 39 s
Bit rate: 46 b/s
Frame rate: 0.218 FPS
Count of elements: 506
Stream size: 13.1 KiB (0%)
Language: Finnish
Default: No
Forced: No

Text #8
ID: 10
Format: UTF-8
Codec ID: S_TEXT/UTF8
Codec ID/Info: UTF-8 Plain Text
Duration: 39 min 14 s
Bit rate: 51 b/s
Frame rate: 0.220 FPS
Count of elements: 517
Stream size: 14.9 KiB (0%)
Title: European
Language: French
Default: No
Forced: No

Text #9
ID: 11
Format: UTF-8
Codec ID: S_TEXT/UTF8
Codec ID/Info: UTF-8 Plain Text
Duration: 38 min 39 s
Bit rate: 47 b/s
Frame rate: 0.203 FPS
Count of elements: 472
Stream size: 13.6 KiB (0%)
Language: Italian
Default: No
Forced: No

Text #10
ID: 12
Format: UTF-8
Codec ID: S_TEXT/UTF8
Codec ID/Info: UTF-8 Plain Text
Duration: 39 min 28 s
Bit rate: 74 b/s
Frame rate: 0.247 FPS
Count of elements: 584
Stream size: 21.6 KiB (0%)
Language: Japanese
Default: No
Forced: No

Text #11
ID: 13
Format: UTF-8
Codec ID: S_TEXT/UTF8
Codec ID/Info: UTF-8 Plain Text
Duration: 39 min 28 s
Bit rate: 74 b/s
Frame rate: 0.247 FPS
Count of elements: 584
Stream size: 21.7 KiB (0%)
Title: SDH
Language: Japanese
Default: No
Forced: No

Text #12
ID: 14
Format: UTF-8
Codec ID: S_TEXT/UTF8
Codec ID/Info: UTF-8 Plain Text
Duration: 39 min 14 s
Bit rate: 57 b/s
Frame rate: 0.225 FPS
Count of elements: 530
Stream size: 16.5 KiB (0%)
Language: Korean
Default: No
Forced: No

Text #13
ID: 15
Format: UTF-8
Codec ID: S_TEXT/UTF8
Codec ID/Info: UTF-8 Plain Text
Duration: 40 min 49 s
Bit rate: 62 b/s
Frame rate: 0.233 FPS
Count of elements: 572
Stream size: 18.7 KiB (0%)
Title: SDH
Language: Korean
Default: No
Forced: No

Text #14
ID: 16
Format: UTF-8
Codec ID: S_TEXT/UTF8
Codec ID/Info: UTF-8 Plain Text
Duration: 38 min 39 s
Bit rate: 49 b/s
Frame rate: 0.180 FPS
Count of elements: 418
Stream size: 13.9 KiB (0%)
Language: Dutch
Default: No
Forced: No

Text #15
ID: 17
Format: UTF-8
Codec ID: S_TEXT/UTF8
Codec ID/Info: UTF-8 Plain Text
Duration: 38 min 39 s
Bit rate: 46 b/s
Frame rate: 0.207 FPS
Count of elements: 479
Stream size: 13.2 KiB (0%)
Language: Norwegian
Default: No
Forced: No

Text #16
ID: 18
Format: UTF-8
Codec ID: S_TEXT/UTF8
Codec ID/Info: UTF-8 Plain Text
Duration: 38 min 39 s
Bit rate: 48 b/s
Frame rate: 0.215 FPS
Count of elements: 499
Stream size: 13.6 KiB (0%)
Language: Polish
Default: No
Forced: No

Text #17
ID: 19
Format: UTF-8
Codec ID: S_TEXT/UTF8
Codec ID/Info: UTF-8 Plain Text
Duration: 38 min 39 s
Bit rate: 50 b/s
Frame rate: 0.212 FPS
Count of elements: 491
Stream size: 14.3 KiB (0%)
Title: Brazilian
Language: Portuguese
Default: No
Forced: No

Text #18
ID: 20
Format: UTF-8
Codec ID: S_TEXT/UTF8
Codec ID/Info: UTF-8 Plain Text
Duration: 39 min 14 s
Bit rate: 51 b/s
Frame rate: 0.221 FPS
Count of elements: 520
Stream size: 14.8 KiB (0%)
Title: European
Language: Portuguese
Default: No
Forced: No

Text #19
ID: 21
Format: UTF-8
Codec ID: S_TEXT/UTF8
Codec ID/Info: UTF-8 Plain Text
Duration: 38 min 39 s
Bit rate: 47 b/s
Frame rate: 0.224 FPS
Count of elements: 520
Stream size: 13.4 KiB (0%)
Language: Swedish
Default: No
Forced: No

Text #20
ID: 22
Format: UTF-8
Codec ID: S_TEXT/UTF8
Codec ID/Info: UTF-8 Plain Text
Duration: 38 min 39 s
Bit rate: 51 b/s
Frame rate: 0.217 FPS
Count of elements: 503
Stream size: 14.5 KiB (0%)
Language: Turkish
Default: No
Forced: No

Text #21
ID: 23
Format: UTF-8
Codec ID: S_TEXT/UTF8
Codec ID/Info: UTF-8 Plain Text
Duration: 39 min 14 s
Bit rate: 47 b/s
Frame rate: 0.222 FPS
Count of elements: 522
Stream size: 13.6 KiB (0%)
Title: Traditional
Language: Chinese
Default: No
Forced: No

Menu
00:00:54.096: en:Intro
00:01:57.284: en:Scene 1
00:40:56.164: en:Credits
ssl  EZTV RSS EZTV Status | EZTV API | DMCA: [email protected]