eztv.wf | eztvstatus.org
Search title:  
TV Packs only
 

House of the Owl S01E02 Merry-Go-Round 720p DSNP WEB-DL DD 5 1 H 264-playWEB EZTV

Episode Breakdown
House of the Owl
House of the Owl TV Show S01E02

Season: 1
Episode: 2
Air Date: 24 April, 2024
Download Links
     Torrent Download     Magnet Download
     Anonymous Download
Added 1 month ago by eztv (verified).
Tracker Statistics
Seeds: 1
Peers: 4
Stats generated @ 16:25 on 17th Jun 2024
Torrent Info
Torrent File: House of the Owl S01E02 Merry-Go-Round 720p DSNP WEB-DL DD 5 1 H 264-playWEB[EZTVx.to].mkv
Torrent Hash: F28ECC7F56950B4151E1228EC5CF1850D7F4D5A8
Filesize: 768 MB
Released: 24th Apr 2024

File Format: MKV (Matroska)
Resolution: 1280x720 px
Aspect Ratio: 16:9
Alternate Releases S L
House of the Owl S01E02 1080p WEB h264-EDITH 4 0
House of the Owl S01E02 XviD-AFG 3 2

House of the Owl S01E02 - Merry-Go-Round

Summary:

Ryutaro must help the prime minister, as Ichiro's mistress plots with a mysterious man.



House of the Owl S01E02 Merry-Go-Round 720p DSNP WEB-DL DD 5 1 H 264-playWEB EZTV
House of the Owl S1E2 Screenshot


General
Unique ID: 101718349680367459344381744790670746209 (0x4C863DD680C96BFC73B42833B9092261)
Complete name: House of the Owl S01E02 Merry-Go-Round 720p DSNP WEB-DL DD 5 1 H 264-playWEB.mkv
Format: Matroska
Format version: Version 4
File size: 768 MiB
Duration: 40 min 59 s
Overall bit rate mode: Variable
Overall bit rate: 2 619 kb/s
Frame rate: 23.976 FPS
Writing application: mkvmerge v83.0 ('Circle Of Friends') 64-bit
Writing library: libebml v1.4.5 + libmatroska v1.7.1

Video
ID: 1
Format: AVC
Format/Info: Advanced Video Codec
Format profile: [email protected]
Format settings: CABAC / 4 Ref Frames
Format settings, CABAC: Yes
Format settings, Reference frames: 4 frames
Codec ID: V_MPEG4/ISO/AVC
Duration: 40 min 59 s
Bit rate mode: Variable
Bit rate: 2 359 kb/s
Maximum bit rate: 6 375 kb/s
Width: 1 280 pixels
Height: 720 pixels
Display aspect ratio: 16:9
Frame rate mode: Constant
Frame rate: 23.976 (24000/1001) FPS
Color space: YUV
Chroma subsampling: 4:2:0
Bit depth: 8 bits
Scan type: Progressive
Bits/(Pixel*Frame): 0.107
Time code of first frame: 00:00:00:0000000000
Stream size: 692 MiB (90%)
Default: Yes
Forced: No
Color range: Limited
Color primaries: BT.709
Transfer characteristics: BT.709
Matrix coefficients: BT.709

Audio
ID: 2
Format: E-AC-3
Format/Info: Enhanced AC-3
Commercial name: Dolby Digital Plus
Codec ID: A_EAC3
Duration: 40 min 59 s
Bit rate mode: Constant
Bit rate: 256 kb/s
Channel(s): 6 channels
Channel layout: L R C LFE Ls Rs
Sampling rate: 48.0 kHz
Frame rate: 31.250 FPS (1536 SPF)
Compression mode: Lossy
Stream size: 75.1 MiB (10%)
Language: Japanese
Service kind: Complete Main
Default: Yes
Forced: No

Text #1
ID: 3
Format: UTF-8
Codec ID: S_TEXT/UTF8
Codec ID/Info: UTF-8 Plain Text
Duration: 39 min 9 s
Bit rate: 55 b/s
Frame rate: 0.242 FPS
Count of elements: 569
Stream size: 15.9 KiB (0%)
Language: Danish
Default: No
Forced: No

Text #2
ID: 4
Format: UTF-8
Codec ID: S_TEXT/UTF8
Codec ID/Info: UTF-8 Plain Text
Duration: 39 min 9 s
Bit rate: 57 b/s
Frame rate: 0.224 FPS
Count of elements: 527
Stream size: 16.4 KiB (0%)
Language: German
Default: No
Forced: No

Text #3
ID: 5
Format: UTF-8
Codec ID: S_TEXT/UTF8
Codec ID/Info: UTF-8 Plain Text
Duration: 39 min 9 s
Bit rate: 57 b/s
Frame rate: 0.243 FPS
Count of elements: 571
Stream size: 16.4 KiB (0%)
Language: English
Default: No
Forced: No

Text #4
ID: 6
Format: UTF-8
Codec ID: S_TEXT/UTF8
Codec ID/Info: UTF-8 Plain Text
Duration: 40 min 57 s
Bit rate: 59 b/s
Frame rate: 0.243 FPS
Count of elements: 596
Stream size: 17.8 KiB (0%)
Title: SDH
Language: English
Default: No
Forced: No

Text #5
ID: 7
Format: UTF-8
Codec ID: S_TEXT/UTF8
Codec ID/Info: UTF-8 Plain Text
Duration: 39 min 9 s
Bit rate: 57 b/s
Frame rate: 0.239 FPS
Count of elements: 561
Stream size: 16.5 KiB (0%)
Title: Latin American
Language: Spanish
Default: No
Forced: No

Text #6
ID: 8
Format: UTF-8
Codec ID: S_TEXT/UTF8
Codec ID/Info: UTF-8 Plain Text
Duration: 39 min 28 s
Bit rate: 56 b/s
Frame rate: 0.226 FPS
Count of elements: 536
Stream size: 16.4 KiB (0%)
Title: European
Language: Spanish
Default: No
Forced: No

Text #7
ID: 9
Format: UTF-8
Codec ID: S_TEXT/UTF8
Codec ID/Info: UTF-8 Plain Text
Duration: 39 min 9 s
Bit rate: 52 b/s
Frame rate: 0.237 FPS
Count of elements: 558
Stream size: 15.1 KiB (0%)
Language: Finnish
Default: No
Forced: No

Text #8
ID: 10
Format: UTF-8
Codec ID: S_TEXT/UTF8
Codec ID/Info: UTF-8 Plain Text
Duration: 39 min 28 s
Bit rate: 59 b/s
Frame rate: 0.240 FPS
Count of elements: 569
Stream size: 17.3 KiB (0%)
Title: European
Language: French
Default: No
Forced: No

Text #9
ID: 11
Format: UTF-8
Codec ID: S_TEXT/UTF8
Codec ID/Info: UTF-8 Plain Text
Duration: 39 min 9 s
Bit rate: 53 b/s
Frame rate: 0.226 FPS
Count of elements: 530
Stream size: 15.4 KiB (0%)
Language: Italian
Default: No
Forced: No

Text #10
ID: 12
Format: UTF-8
Codec ID: S_TEXT/UTF8
Codec ID/Info: UTF-8 Plain Text
Duration: 39 min 6 s
Bit rate: 80 b/s
Frame rate: 0.247 FPS
Count of elements: 580
Stream size: 22.9 KiB (0%)
Language: Japanese
Default: No
Forced: No

Text #11
ID: 13
Format: UTF-8
Codec ID: S_TEXT/UTF8
Codec ID/Info: UTF-8 Plain Text
Duration: 39 min 6 s
Bit rate: 81 b/s
Frame rate: 0.247 FPS
Count of elements: 580
Stream size: 23.3 KiB (0%)
Title: SDH
Language: Japanese
Default: No
Forced: No

Text #12
ID: 14
Format: UTF-8
Codec ID: S_TEXT/UTF8
Codec ID/Info: UTF-8 Plain Text
Duration: 39 min 28 s
Bit rate: 63 b/s
Frame rate: 0.244 FPS
Count of elements: 577
Stream size: 18.3 KiB (0%)
Language: Korean
Default: No
Forced: No

Text #13
ID: 15
Format: UTF-8
Codec ID: S_TEXT/UTF8
Codec ID/Info: UTF-8 Plain Text
Duration: 40 min 57 s
Bit rate: 67 b/s
Frame rate: 0.245 FPS
Count of elements: 602
Stream size: 20.1 KiB (0%)
Title: SDH
Language: Korean
Default: No
Forced: No

Text #14
ID: 16
Format: UTF-8
Codec ID: S_TEXT/UTF8
Codec ID/Info: UTF-8 Plain Text
Duration: 39 min 9 s
Bit rate: 54 b/s
Frame rate: 0.192 FPS
Count of elements: 452
Stream size: 15.6 KiB (0%)
Language: Dutch
Default: No
Forced: No

Text #15
ID: 17
Format: UTF-8
Codec ID: S_TEXT/UTF8
Codec ID/Info: UTF-8 Plain Text
Duration: 39 min 9 s
Bit rate: 52 b/s
Frame rate: 0.223 FPS
Count of elements: 524
Stream size: 15.1 KiB (0%)
Language: Norwegian
Default: No
Forced: No

Text #16
ID: 18
Format: UTF-8
Codec ID: S_TEXT/UTF8
Codec ID/Info: UTF-8 Plain Text
Duration: 39 min 9 s
Bit rate: 54 b/s
Frame rate: 0.233 FPS
Count of elements: 548
Stream size: 15.6 KiB (0%)
Language: Polish
Default: No
Forced: No

Text #17
ID: 19
Format: UTF-8
Codec ID: S_TEXT/UTF8
Codec ID/Info: UTF-8 Plain Text
Duration: 39 min 9 s
Bit rate: 55 b/s
Frame rate: 0.236 FPS
Count of elements: 555
Stream size: 15.8 KiB (0%)
Title: Brazilian
Language: Portuguese
Default: No
Forced: No

Text #18
ID: 20
Format: UTF-8
Codec ID: S_TEXT/UTF8
Codec ID/Info: UTF-8 Plain Text
Duration: 39 min 28 s
Bit rate: 58 b/s
Frame rate: 0.242 FPS
Count of elements: 573
Stream size: 16.8 KiB (0%)
Title: European
Language: Portuguese
Default: No
Forced: No

Text #19
ID: 21
Format: UTF-8
Codec ID: S_TEXT/UTF8
Codec ID/Info: UTF-8 Plain Text
Duration: 39 min 9 s
Bit rate: 55 b/s
Frame rate: 0.243 FPS
Count of elements: 572
Stream size: 15.8 KiB (0%)
Language: Swedish
Default: No
Forced: No

Text #20
ID: 22
Format: UTF-8
Codec ID: S_TEXT/UTF8
Codec ID/Info: UTF-8 Plain Text
Duration: 39 min 9 s
Bit rate: 57 b/s
Frame rate: 0.234 FPS
Count of elements: 549
Stream size: 16.5 KiB (0%)
Language: Turkish
Default: No
Forced: No

Text #21
ID: 23
Format: UTF-8
Codec ID: S_TEXT/UTF8
Codec ID/Info: UTF-8 Plain Text
Duration: 39 min 28 s
Bit rate: 50 b/s
Frame rate: 0.242 FPS
Count of elements: 573
Stream size: 14.7 KiB (0%)
Title: Traditional
Language: Chinese
Default: No
Forced: No

Menu
00:00:35.577: en:Intro
00:01:38.765: en:Scene 1
00:40:52.160: en:Credits
ssl  EZTV RSS EZTV Status | EZTV API | DMCA: [email protected]