eztv.wf | eztvstatus.org
Search title:  
TV Packs only
 

Franklin 2024 S01E05 720p x264-FENiX EZTV

Episode Breakdown
Franklin
Franklin TV Show S01E05

Season: 1
Episode: 5
Air Date: 26 April, 2024
Download Links
     Torrent Download     Magnet Download
     Anonymous Download
Added 2 months ago by eztv (verified).
Tracker Statistics
Seeds: 1
Peers: 1
Stats generated @ 06:40 on 23rd Jul 2024
Torrent Info
Torrent File: Franklin 2024 S01E05 720p x264-FENiX[EZTVx.to].mkv
Torrent Hash: E371E90091F38208F8E24E8AFB7CB99FAA2016CD
Filesize: 570 MB
Released: 26th Apr 2024

File Format: MKV (Matroska)
Resolution: 1280x720 px
Aspect Ratio: 16:9
Alternate Releases S L
Franklin 2024 S01E05 1080p WEB H264-SuccessfulCrab 14 4
Franklin 2024 S01E05 MULTI 1080p WEB H264-HiggsBoson 4 7
Franklin 2024 S01E05 XviD-AFG 7 2
Franklin 2024 S01E05 720p x265-T0PAZ 9 0
Franklin 2024 S01E05 1080p x265-ELiTE 8 2
Franklin 2024 S01E05 The Natural State of Man 720p ATVP WEB-DL DDP5 1 Atmos H 264-FLUX 1 0
Franklin 2024 S01E05 The Natural State of Man 1080p AWEBRip 10Bit 1080p DDP5 1 Atmos HEVC-d3g 5 1

Franklin S01E05 - The Natural State of Man

Summary:

Tensions mount between Franklin and Adams. Madame Brillon asserts her power. Temple decides to fight his own war.



Franklin 2024 S01E05 720p x264-FENiX EZTV
Franklin S1E5 Screenshot


General
Unique ID: 12501887766130128155322018301810791718 (0x967C6A800A8B8E23A584885D6275526)
Complete name: Franklin 2024 S01E05 720p x264-FENiX.mkv
Format: Matroska
Format version: Version 4
File size: 570 MiB
Duration: 50 min 39 s
Overall bit rate: 1 573 kb/s
Frame rate: 23.976 FPS
Movie name: Franklin.2024.S01E05
Writing application: Lavf60.16.100
Writing library: Lavf60.16.100
Comment: FENiX-Fri-26-Apr-2024,02:59:36,720p,22,fast,N,9728438,1918,872,2.2
ErrorDetectionType: Per level 1

Video
ID: 1
Format: AVC
Format/Info: Advanced Video Codec
Format profile: [email protected]
Format settings: CABAC / 4 Ref Frames
Format settings, CABAC: Yes
Format settings, Reference frames: 4 frames
Codec ID: V_MPEG4/ISO/AVC
Duration: 50 min 38 s
Bit rate: 1 094 kb/s
Width: 1 280 pixels
Height: 582 pixels
Display aspect ratio: 2.2:1
Frame rate mode: Constant
Frame rate: 23.976 (24000/1001) FPS
Color space: YUV
Chroma subsampling: 4:2:0
Bit depth: 8 bits
Scan type: Progressive
Bits/(Pixel*Frame): 0.061
Stream size: 396 MiB (70%)
Writing library: x264 core 164
Encoding settings: cabac=1 / ref=2 / deblock=1:0:0 / analyse=0x3:0x113 / me=hex / subme=6 / psy=1 / psy_rd=1.00:0.00 / mixed_ref=1 / me_range=16 / chroma_me=1 / trellis=1 / 8x8dct=1 / cqm=0 / deadzone=21,11 / fast_pskip=1 / chroma_qp_offset=-2 / threads=18 / lookahead_threads=3 / sliced_threads=0 / nr=0 / decimate=1 / interlaced=0 / bluray_compat=0 / constrained_intra=0 / bframes=3 / b_pyramid=2 / b_adapt=1 / b_bias=0 / direct=1 / weightb=1 / open_gop=0 / weightp=1 / keyint=250 / keyint_min=23 / scenecut=40 / intra_refresh=0 / rc_lookahead=30 / rc=crf / mbtree=1 / crf=22.0 / qcomp=0.60 / qpmin=0 / qpmax=69 / qpstep=4 / ip_ratio=1.40 / aq=1:1.00
Default: Yes
Forced: No
Color range: Limited
Color primaries: BT.709
Transfer characteristics: BT.709
Matrix coefficients: BT.709

Audio
ID: 2
Format: AC-3
Format/Info: Audio Coding 3
Commercial name: Dolby Digital
Codec ID: A_AC3
Duration: 50 min 39 s
Bit rate mode: Constant
Bit rate: 448 kb/s
Channel(s): 6 channels
Channel layout: L R C LFE Ls Rs
Sampling rate: 48.0 kHz
Frame rate: 31.250 FPS (1536 SPF)
Bit depth: 32 bits
Compression mode: Lossy
Stream size: 162 MiB (28%)
Writing library: Lavc60.31.102 ac3
Language: English
Service kind: Complete Main
Default: Yes
Forced: No

Text #1
ID: 3
Format: UTF-8
Codec ID: S_TEXT/UTF8
Codec ID/Info: UTF-8 Plain Text
Duration: 48 min 32 s
Language: English
Default: No
Forced: Yes

Text #2
ID: 4
Format: UTF-8
Codec ID: S_TEXT/UTF8
Codec ID/Info: UTF-8 Plain Text
Duration: 48 min 26 s
Language: English
Default: Yes
Forced: Yes
ssl  EZTV RSS EZTV Status | EZTV API | DMCA: [email protected]