eztv.wf | eztvstatus.org
Search title:  
TV Packs only
 

Franklin 2024 S01E05 1080p x265-ELiTE EZTV

Episode Breakdown
Franklin
Franklin TV Show S01E05

Season: 1
Episode: 5
Air Date: 26 April, 2024
Download Links
     Torrent Download     Magnet Download
     Anonymous Download
Added 2 months ago by eztv (verified).
Tracker Statistics
Seeds: 7
Peers: 1
Stats generated @ 08:09 on 23rd Jul 2024
Torrent Info
Torrent File: Franklin 2024 S01E05 1080p x265-ELiTE[EZTVx.to].mkv
Torrent Hash: C3C1482AD7E2CE6C52647F5EB5241C3A30C18970
Filesize: 673 MB
Released: 26th Apr 2024

File Format: MKV (Matroska)
Resolution: 1920x1080 px
Aspect Ratio: 16:9
Alternate Releases S L
Franklin 2024 S01E05 1080p WEB H264-SuccessfulCrab 15 4
Franklin 2024 S01E05 MULTI 1080p WEB H264-HiggsBoson 3 5
Franklin 2024 S01E05 XviD-AFG 6 2
Franklin 2024 S01E05 720p x264-FENiX 0 0
Franklin 2024 S01E05 720p x265-T0PAZ 7 1
Franklin 2024 S01E05 The Natural State of Man 720p ATVP WEB-DL DDP5 1 Atmos H 264-FLUX 1 0
Franklin 2024 S01E05 The Natural State of Man 1080p AWEBRip 10Bit 1080p DDP5 1 Atmos HEVC-d3g 5 1

Franklin S01E05 - The Natural State of Man

Summary:

Tensions mount between Franklin and Adams. Madame Brillon asserts her power. Temple decides to fight his own war.



Franklin 2024 S01E05 1080p x265-ELiTE EZTV
Franklin S1E5 Screenshot


General
Unique ID: 137114595594226154054469631188422313718 (0x67274F7FFDD8A8E6A8EFA2924EB346F6)
Complete name: Franklin 2024 S01E05 1080p x265-ELiTE.mkv
Format: Matroska
Format version: Version 4
File size: 673 MiB
Duration: 50 min 39 s
Overall bit rate: 1 858 kb/s
Frame rate: 23.976 FPS
Movie name: Franklin.2024.S01E05
Writing application: Lavf60.16.100
Writing library: Lavf60.16.100
Comment: ELiTE-Fri-26-Apr-2024,03:27:47,1080p,22,faster,Y,9728438,1918,872,2.2
ErrorDetectionType: Per level 1

Video
ID: 1
Format: HEVC
Format/Info: High Efficiency Video Coding
Format profile: Main 10@L4@Main
Codec ID: V_MPEGH/ISO/HEVC
Duration: 50 min 38 s
Bit rate: 1 373 kb/s
Width: 1 920 pixels
Height: 872 pixels
Display aspect ratio: 2.2:1
Frame rate mode: Constant
Frame rate: 23.976 (24000/1001) FPS
Color space: YUV
Chroma subsampling: 4:2:0 (Type 2)
Bit depth: 10 bits
Bits/(Pixel*Frame): 0.034
Stream size: 498 MiB (74%)
Writing library: x265 0.0:[Linux][GCC 4.8.5][64 bit] 10bit
Encoding settings: cpuid=1111039 / frame-threads=4 / wpp / no-pmode / no-pme / no-psnr / no-ssim / log-level=2 / input-csp=1 / input-res=1920x872 / interlace=0 / total-frames=0 / level-idc=0 / high-tier=1 / uhd-bd=0 / ref=2 / no-allow-non-conformance / no-repeat-headers / annexb / no-aud / no-hrd / info / hash=0 / no-temporal-layers / open-gop / min-keyint=23 / keyint=250 / gop-lookahead=0 / bframes=4 / b-adapt=0 / b-pyramid / bframe-bias=0 / rc-lookahead=15 / lookahead-slices=5 / scenecut=40 / hist-scenecut=0 / radl=0 / no-splice / no-intra-refresh / ctu=64 / min-cu-size=8 / no-rect / no-amp / max-tu-size=32 / tu-inter-depth=1 / tu-intra-depth=1 / limit-tu=0 / rdoq-level=0 / dynamic-rd=0.00 / no-ssim-rd / signhide / no-tskip / nr-intra=0 / nr-inter=0 / no-constrained-intra / strong-intra-smoothing / max-merge=2 / limit-refs=3 / no-limit-modes / me=1 / subme=2 / merange=57 / temporal-mvp / no-frame-dup / no-hme / weightp / no-weightb / no-analyze-src-pics / deblock=0:0 / sao / no-sao-non-deblock / rd=2 / selective-sao=4 / early-skip / rskip / fast-intra / no-tskip-fast / no-cu-lossless / no-b-intra / no-splitrd-skip / rdpenalty=0 / psy-rd=2.00 / psy-rdoq=0.00 / no-rd-refine / no-lossless / cbqpoffs=0 / crqpoffs=0 / rc=crf / crf=22.0 / qcomp=0.60 / qpstep=4 / stats-write=0 / stats-read=0 / ipratio=1.40 / pbratio=1.30 / aq-mode=2 / aq-strength=1.00 / cutree / zone-count=0 / no-strict-cbr / qg-size=32 / no-rc-grain / qpmax=69 / qpmin=0 / no-const-vbv / sar=1 / overscan=0 / videoformat=5 / range=0 / colorprim=1 / transfer=1 / colormatrix=1 / chromaloc=1 / chromaloc-top=2 / chromaloc-bottom=2 / display-window=0 / cll=0,0 / min-luma=0 / max-luma=1023 / log2-max-poc-lsb=8 / vui-timing-info / vui-hrd-info / slices=1 / no-opt-qp-pps / no-opt-ref-list-length-pps / no-multi-pass-opt-rps / scenecut-bias=0.05 / hist-threshold=0.01 / no-opt-cu-delta-qp / no-aq-motion / no-hdr10 / no-hdr10-opt / no-dhdr10-opt / no-idr-recovery-sei / analysis-reuse-level=0 / analysis-save-reuse-level=0 / analysis-load-reuse-level=0 / scale-factor=0 / refine-intra=0 / refine-inter=0 / refine-mv=1 / refine-ctu-distortion=0 / no-limit-sao / ctu-info=0 / no-lowpass-dct / refine-analysis-type=0 / copy-pic=1 / max-ausize-factor=1.0 / no-dynamic-refine / no-single-sei / no-hevc-aq / no-svt / no-field / qp-adaptation-range=1.00 / no-scenecut-aware-qpconformance-window-offsets / right=0 / bottom=0 / decoder-max-rate=0
Default: Yes
Forced: No
Color range: Limited
Color primaries: BT.709
Transfer characteristics: BT.709
Matrix coefficients: BT.709

Audio
ID: 2
Format: AC-3
Format/Info: Audio Coding 3
Commercial name: Dolby Digital
Codec ID: A_AC3
Duration: 50 min 39 s
Bit rate mode: Constant
Bit rate: 448 kb/s
Channel(s): 6 channels
Channel layout: L R C LFE Ls Rs
Sampling rate: 48.0 kHz
Frame rate: 31.250 FPS (1536 SPF)
Bit depth: 32 bits
Compression mode: Lossy
Stream size: 162 MiB (24%)
Writing library: Lavc60.31.102 ac3
Language: English
Service kind: Complete Main
Default: Yes
Forced: No

Text #1
ID: 3
Format: UTF-8
Codec ID: S_TEXT/UTF8
Codec ID/Info: UTF-8 Plain Text
Duration: 48 min 32 s
Language: English
Default: No
Forced: Yes

Text #2
ID: 4
Format: UTF-8
Codec ID: S_TEXT/UTF8
Codec ID/Info: UTF-8 Plain Text
Duration: 48 min 26 s
Language: English
Default: Yes
Forced: Yes
ssl  EZTV RSS EZTV Status | EZTV API | DMCA: [email protected]