eztv.wf | eztvstatus.org
Search title:  
TV Packs only
 

Knuckles S01E05 Reno Baby 1080p AMZN WEB-DL DDP5 1 Atmos H 264-FLUX EZTV

Episode Breakdown
Knuckles
Knuckles TV Show S01E05

Season: 1
Episode: 5
Air Date: 26 April, 2024
Download Links
     Torrent Download     Magnet Download
     Anonymous Download
Added 2 months ago by eztv (verified).
Tracker Statistics
Seeds: 20
Peers: 3
Stats generated @ 14:49 on 19th Jul 2024
Torrent Info
Torrent File: Knuckles S01E05 Reno Baby 1080p AMZN WEB-DL DDP5 1 Atmos H 264-FLUX[EZTVx.to].mkv
Torrent Hash: 81ACD7B3C6C403566C486A77EB2A42499962F6D9
Filesize: 1.92 GB
Released: 26th Apr 2024

File Format: MKV (Matroska)
Resolution: 1920x1080 px
Aspect Ratio: 16:9
Alternate Releases S L
Knuckles S01E05 1080p WEB H264-SuccessfulCrab 50 3
Knuckles S01E05 1080p HEVC x265-MeGusta 17 7
Knuckles S01E05 XviD-AFG 3 2
Knuckles S01E05 720p WEB h264-DiRT 6 1

Knuckles S01E05 - Reno, Baby

Summary:

Knuckles and Wade arrive in Reno, Nevada for the National Bowling Championship.



Knuckles S01E05 Reno Baby 1080p AMZN WEB-DL DDP5 1 Atmos H 264-FLUX EZTV
Knuckles S1E5 Screenshot


General
Unique ID: 314463231289069192949661027325006743889 (0xEC936A54B1D8AC6EDF897D20188E8951)
Complete name: Knuckles S01E05 Reno Baby 1080p AMZN WEB-DL DDP5 1 Atmos H 264-FLUX.mkv
Format: Matroska
Format version: Version 4
File size: 1.92 GiB
Duration: 31 min 41 s
Overall bit rate: 8 696 kb/s
Frame rate: 23.976 FPS
Writing application: mkvmerge v83.0 ('Circle Of Friends') 64-bit
Writing library: libebml v1.4.5 + libmatroska v1.7.1

Video
ID: 1
Format: AVC
Format/Info: Advanced Video Codec
Format profile: High@L4
Format settings: CABAC / 4 Ref Frames
Format settings, CABAC: Yes
Format settings, Reference frames: 4 frames
Codec ID: V_MPEG4/ISO/AVC
Duration: 31 min 40 s
Bit rate mode: Constant
Bit rate: 7 929 kb/s
Nominal bit rate: 10 000 kb/s
Width: 1 920 pixels
Height: 1 080 pixels
Display aspect ratio: 16:9
Frame rate mode: Constant
Frame rate: 23.976 (24000/1001) FPS
Color space: YUV
Chroma subsampling: 4:2:0
Bit depth: 8 bits
Scan type: Progressive
Bits/(Pixel*Frame): 0.159
Stream size: 1.75 GiB (91%)
Language: English (US)
Default: Yes
Forced: No
Color range: Limited
Color primaries: BT.709
Transfer characteristics: BT.709
Matrix coefficients: BT.709

Audio
ID: 2
Format: E-AC-3 JOC
Format/Info: Enhanced AC-3 with Joint Object Coding
Commercial name: Dolby Digital Plus with Dolby Atmos
Codec ID: A_EAC3
Duration: 31 min 35 s
Bit rate mode: Constant
Bit rate: 768 kb/s
Channel(s): 6 channels
Channel layout: L R C LFE Ls Rs
Sampling rate: 48.0 kHz
Frame rate: 31.250 FPS (1536 SPF)
Compression mode: Lossy
Delay relative to video: 5 s 442 ms
Stream size: 174 MiB (9%)
Language: English (US)
Service kind: Complete Main
Default: Yes
Forced: No
Complexity index: 16
Number of dynamic objects: 15
Bed channel count: 1 channel
Bed channel configuration: LFE

Text #1
ID: 3
Format: UTF-8
Codec ID: S_TEXT/UTF8
Codec ID/Info: UTF-8 Plain Text
Duration: 30 min 22 s
Bit rate: 80 b/s
Frame rate: 0.296 FPS
Count of elements: 540
Stream size: 17.8 KiB (0%)
Language: English (US)
Default: No
Forced: No

Text #2
ID: 4
Format: UTF-8
Codec ID: S_TEXT/UTF8
Codec ID/Info: UTF-8 Plain Text
Duration: 30 min 25 s
Bit rate: 94 b/s
Frame rate: 0.343 FPS
Count of elements: 626
Stream size: 21.1 KiB (0%)
Title: SDH
Language: English (US)
Default: No
Forced: No

Text #3
ID: 5
Format: UTF-8
Codec ID: S_TEXT/UTF8
Codec ID/Info: UTF-8 Plain Text
Duration: 30 min 12 s
Bit rate: 64 b/s
Frame rate: 0.212 FPS
Count of elements: 385
Stream size: 14.3 KiB (0%)
Language: German
Default: No
Forced: No

Text #4
ID: 6
Format: UTF-8
Codec ID: S_TEXT/UTF8
Codec ID/Info: UTF-8 Plain Text
Duration: 30 min 12 s
Bit rate: 60 b/s
Frame rate: 0.201 FPS
Count of elements: 365
Stream size: 13.3 KiB (0%)
Title: Mexican
Language: Spanish (MX)
Default: No
Forced: No

Text #5
ID: 7
Format: UTF-8
Codec ID: S_TEXT/UTF8
Codec ID/Info: UTF-8 Plain Text
Duration: 30 min 12 s
Bit rate: 59 b/s
Frame rate: 0.210 FPS
Count of elements: 381
Stream size: 13.2 KiB (0%)
Language: French
Default: No
Forced: No

Text #6
ID: 8
Format: UTF-8
Codec ID: S_TEXT/UTF8
Codec ID/Info: UTF-8 Plain Text
Duration: 30 min 12 s
Bit rate: 60 b/s
Frame rate: 0.211 FPS
Count of elements: 383
Stream size: 13.5 KiB (0%)
Language: Italian
Default: No
Forced: No

Text #7
ID: 9
Format: UTF-8
Codec ID: S_TEXT/UTF8
Codec ID/Info: UTF-8 Plain Text
Duration: 30 min 12 s
Bit rate: 57 b/s
Frame rate: 0.206 FPS
Count of elements: 374
Stream size: 12.6 KiB (0%)
Title: Brazilian
Language: Portuguese (BR)
Default: No
Forced: No

Menu
00:00:00.000: en:Chapter 01
00:00:55.000: en:Opening Credits
00:01:53.000: en:Chapter 02
00:29:49.000: en:Credits

ssl  EZTV RSS EZTV Status | EZTV API | DMCA: [email protected]