eztv.wf | eztvstatus.org
Search title:  
TV Packs only
 

Knuckles S01E04 The Flames Of Disaster 1080p AMZN WEB-DL DDP5 1 Atmos H 264-FLUX EZTV

Episode Breakdown
Knuckles
Knuckles TV Show S01E04

Season: 1
Episode: 4
Air Date: 26 April, 2024
Download Links
     Torrent Download     Magnet Download
     Anonymous Download
Added 1 month ago by eztv (verified).
Tracker Statistics
Seeds: 21
Peers: 3
Stats generated @ 03:25 on 18th Jun 2024
Torrent Info
Torrent File: Knuckles S01E04 The Flames Of Disaster 1080p AMZN WEB-DL DDP5 1 Atmos H 264-FLUX[EZTVx.to].mkv
Torrent Hash: 4A9F027F2A337491C95545B936DD14F21A9E1FC9
Filesize: 1.63 GB
Released: 26th Apr 2024

File Format: MKV (Matroska)
Resolution: 1920x1080 px
Aspect Ratio: 16:9
Alternate Releases S L
Knuckles S01E04 1080p WEB H264-SuccessfulCrab 79 6
Knuckles S01E04 XviD-AFG 4 0
Knuckles S01E04 1080p HEVC x265-MeGusta 18 2
Knuckles S01E04 480p x264-mSD 5 0

Knuckles S01E04 - The Flames of Disaster

Summary:

In order to learn where Knuckles' true strength lies, Wade must see the world through his eyes.



Knuckles S01E04 The Flames Of Disaster 1080p AMZN WEB-DL DDP5 1 Atmos H 264-FLUX EZTV
Knuckles S1E4 Screenshot


General
Unique ID: 128983401443280119380255336175008330243 (0x61094CAD22F185E58744F12EBE7DB203)
Complete name: Knuckles S01E04 The Flames Of Disaster 1080p AMZN WEB-DL DDP5 1 Atmos H 264-FLUX.mkv
Format: Matroska
Format version: Version 4
File size: 1.63 GiB
Duration: 24 min 56 s
Overall bit rate: 9 368 kb/s
Frame rate: 23.976 FPS
Writing application: mkvmerge v83.0 ('Circle Of Friends') 64-bit
Writing library: libebml v1.4.5 + libmatroska v1.7.1

Video
ID: 1
Format: AVC
Format/Info: Advanced Video Codec
Format profile: High@L4
Format settings: CABAC / 4 Ref Frames
Format settings, CABAC: Yes
Format settings, Reference frames: 4 frames
Codec ID: V_MPEG4/ISO/AVC
Duration: 24 min 56 s
Bit rate mode: Constant
Bit rate: 8 603 kb/s
Nominal bit rate: 10 000 kb/s
Width: 1 920 pixels
Height: 1 080 pixels
Display aspect ratio: 16:9
Frame rate mode: Constant
Frame rate: 23.976 (24000/1001) FPS
Color space: YUV
Chroma subsampling: 4:2:0
Bit depth: 8 bits
Scan type: Progressive
Bits/(Pixel*Frame): 0.173
Stream size: 1.50 GiB (92%)
Language: English (US)
Default: Yes
Forced: No
Color range: Limited
Color primaries: BT.709
Transfer characteristics: BT.709
Matrix coefficients: BT.709

Audio
ID: 2
Format: E-AC-3 JOC
Format/Info: Enhanced AC-3 with Joint Object Coding
Commercial name: Dolby Digital Plus with Dolby Atmos
Codec ID: A_EAC3
Duration: 24 min 51 s
Bit rate mode: Constant
Bit rate: 768 kb/s
Channel(s): 6 channels
Channel layout: L R C LFE Ls Rs
Sampling rate: 48.0 kHz
Frame rate: 31.250 FPS (1536 SPF)
Compression mode: Lossy
Delay relative to video: 5 s 442 ms
Stream size: 137 MiB (8%)
Language: English (US)
Service kind: Complete Main
Default: Yes
Forced: No
Complexity index: 16
Number of dynamic objects: 15
Bed channel count: 1 channel
Bed channel configuration: LFE

Text #1
ID: 3
Format: UTF-8
Codec ID: S_TEXT/UTF8
Codec ID/Info: UTF-8 Plain Text
Duration: 23 min 31 s
Bit rate: 81 b/s
Frame rate: 0.298 FPS
Count of elements: 420
Stream size: 14.1 KiB (0%)
Language: English (US)
Default: No
Forced: No

Text #2
ID: 4
Format: UTF-8
Codec ID: S_TEXT/UTF8
Codec ID/Info: UTF-8 Plain Text
Duration: 23 min 34 s
Bit rate: 106 b/s
Frame rate: 0.374 FPS
Count of elements: 529
Stream size: 18.3 KiB (0%)
Title: SDH
Language: English (US)
Default: No
Forced: No

Text #3
ID: 5
Format: UTF-8
Codec ID: S_TEXT/UTF8
Codec ID/Info: UTF-8 Plain Text
Duration: 23 min 23 s
Bit rate: 68 b/s
Frame rate: 0.254 FPS
Count of elements: 357
Stream size: 11.7 KiB (0%)
Language: German
Default: No
Forced: No

Text #4
ID: 6
Format: UTF-8
Codec ID: S_TEXT/UTF8
Codec ID/Info: UTF-8 Plain Text
Duration: 23 min 23 s
Bit rate: 64 b/s
Frame rate: 0.235 FPS
Count of elements: 330
Stream size: 11.1 KiB (0%)
Title: Mexican
Language: Spanish (MX)
Default: No
Forced: No

Text #5
ID: 7
Format: UTF-8
Codec ID: S_TEXT/UTF8
Codec ID/Info: UTF-8 Plain Text
Duration: 23 min 23 s
Bit rate: 64 b/s
Frame rate: 0.242 FPS
Count of elements: 340
Stream size: 11.0 KiB (0%)
Language: French
Default: No
Forced: No

Text #6
ID: 8
Format: UTF-8
Codec ID: S_TEXT/UTF8
Codec ID/Info: UTF-8 Plain Text
Duration: 23 min 23 s
Bit rate: 62 b/s
Frame rate: 0.256 FPS
Count of elements: 359
Stream size: 10.8 KiB (0%)
Language: Italian
Default: No
Forced: No

Text #7
ID: 9
Format: UTF-8
Codec ID: S_TEXT/UTF8
Codec ID/Info: UTF-8 Plain Text
Duration: 23 min 23 s
Bit rate: 60 b/s
Frame rate: 0.247 FPS
Count of elements: 347
Stream size: 10.3 KiB (0%)
Title: Brazilian
Language: Portuguese (BR)
Default: No
Forced: No

Menu
00:00:00.000: en:Chapter 01
00:01:32.000: en:Opening Credits
00:02:30.000: en:Chapter 02
00:22:57.000: en:Credits

ssl  EZTV RSS EZTV Status | EZTV API | DMCA: [email protected]