eztv.wf | eztvstatus.org
Search title:  
TV Packs only
 

Them S02E06 Would You Like to Play a Game 1080p WEBRip 10Bit DDP5 1 HEVC-d3g EZTV

Episode Breakdown
Them
Them TV Show S02E06

Season: 2
Episode: 6
Air Date: 25 April, 2024
Download Links
     Torrent Download     Magnet Download
     Anonymous Download
Added 1 month ago by eztv (verified).
Tracker Statistics
Seeds: 1
Peers: 2
Stats generated @ 05:15 on 18th Jun 2024
Torrent Info
Torrent File: Them S02E06 Would You Like to Play a Game 1080p WEBRip 10Bit DDP5 1 HEVC-d3g[EZTVx.to].mkv
Torrent Hash: 06559E9EBAF7689C2508D332C97C65312A112183
Filesize: 940 MB
Released: 26th Apr 2024

File Format: MKV (Matroska)
Resolution: 1920x1080 px
Aspect Ratio: 16:9
Alternate Releases S L
Them S02E06 1080p WEB H264-SuccessfulCrab 24 3
Them S02E06 XviD-AFG 3 3
Them S02E06 1080p HEVC x265-MeGusta 2 4

Them S02E06 - Would You Like to Play a Game?

Summary:

Dawn becomes the target of her own investigation. The killer sets his sights on Kel.



Them S02E06 Would You Like to Play a Game 1080p WEBRip 10Bit DDP5 1 HEVC-d3g EZTV
Them S2E6 Screenshot


General
Unique ID: 215801225691229240811096978551236407715 (0xA259CDE3F2052D30BB5B3EB1FE1331A3)
Complete name: Them S02E06 Would You Like to Play a Game 1080p WEBRip 10Bit DDP5 1 HEVC-d3g.mkv
Format: Matroska
Format version: Version 2
File size: 940 MiB
Duration: 31 min 19 s
Overall bit rate: 4 197 kb/s
Frame rate: 23.976 FPS
Movie name: Them.S02E06.Would.You.Like.to.Play.a.Game.1080p.WEBRip.10Bit.DDP5.1.HEVC-d3g
Encoded date: 2024-04-26 12:18:02 UTC
Writing application: DVDFab 12.1.1.5
Writing library: libebml v1.4.2 + libmatroska v1.6.3

Video
ID: 1
Format: HEVC
Format/Info: High Efficiency Video Coding
Format profile: Main 10@L4@Main
Codec ID: V_MPEGH/ISO/HEVC
Duration: 31 min 19 s
Bit rate: 3 495 kb/s
Width: 1 920 pixels
Height: 800 pixels
Display aspect ratio: 2.40:1
Frame rate mode: Constant
Frame rate: 23.976 (24000/1001) FPS
Color space: YUV
Chroma subsampling: 4:2:0
Bit depth: 10 bits
Bits/(Pixel*Frame): 0.095
Stream size: 783 MiB (83%)
Default: Yes
Forced: No
Color range: Limited
Color primaries: BT.709
Transfer characteristics: BT.709
Matrix coefficients: BT.709

Audio
ID: 2
Format: E-AC-3
Format/Info: Enhanced AC-3
Commercial name: Dolby Digital Plus
Codec ID: A_EAC3
Duration: 31 min 19 s
Bit rate mode: Constant
Bit rate: 640 kb/s
Channel(s): 6 channels
Channel layout: L R C LFE Ls Rs
Sampling rate: 48.0 kHz
Frame rate: 31.250 FPS (1536 SPF)
Compression mode: Lossy
Stream size: 143 MiB (15%)
Language: English
Service kind: Complete Main
Default: Yes
Forced: No

Text #1
ID: 3
Format: PGS
Codec ID: S_HDMV/PGS
Codec ID/Info: Picture based subtitle format used on BDs/HD-DVDs
Duration: 27 min 40 s
Bit rate: 31.9 kb/s
Frame rate: 0.483 FPS
Count of elements: 802
Stream size: 6.32 MiB (1%)
Language: English
Default: Yes
Forced: No

Text #2
ID: 4
Format: PGS
Codec ID: S_HDMV/PGS
Codec ID/Info: Picture based subtitle format used on BDs/HD-DVDs
Duration: 29 min 48 s
Bit rate: 33.1 kb/s
Frame rate: 0.511 FPS
Count of elements: 914
Stream size: 7.06 MiB (1%)
Language: English
Default: No
Forced: No

Menu
00:00:00.000: en:Chapter 1
00:00:06.000: en:Chapter 2
00:00:21.000: en:Chapter 3
00:00:53.000: en:Chapter 4
00:01:30.000: en:Opening Credits
00:01:40.000: en:Chapter 6
00:04:02.000: en:Chapter 7
00:04:57.000: en:Chapter 8
00:05:32.000: en:Chapter 9
00:06:06.000: en:Chapter 10
00:08:27.000: en:Chapter 11
00:10:13.000: en:Chapter 12
00:11:28.000: en:Chapter 13
00:11:59.000: en:Chapter 14
00:12:54.000: en:Chapter 15
00:13:47.000: en:Chapter 16
00:14:28.000: en:Chapter 17
00:15:07.000: en:Chapter 18
00:16:24.000: en:Chapter 19
00:17:19.000: en:Chapter 20
00:18:23.000: en:Chapter 21
00:19:07.000: en:Chapter 22
00:21:24.000: en:Chapter 23
00:22:17.000: en:Chapter 24
00:23:41.000: en:Chapter 25
00:26:38.000: en:Chapter 26
00:27:50.000: en:Chapter 27

ssl  EZTV RSS EZTV Status | EZTV API | DMCA: [email protected]