eztv.wf | eztvstatus.org
Search title:  
TV Packs only
 

Chief Detective 1958 S01E04 2024 1080p DSNP WEB-DL H264 AAC-ADWeb EZTV

Episode Breakdown
Chief Detective 1958
Chief Detective 1958 TV Show S01E04

Season: 1
Episode: 4
Air Date: 27 April, 2024
Download Links
     Torrent Download     Magnet Download
     Anonymous Download
Added 1 month ago by eztv (verified).
Tracker Statistics
Seeds: 3
Peers: 2
Stats generated @ 05:06 on 22nd Jun 2024
Torrent Info
Torrent File: Chief.Detective.1958.S01E04.2024.1080p.DSNP.WEB-DL.H264.AAC-ADWeb[EZTVx.to].mkv
Torrent Hash: C4C47399F1FD8430E56ADEC35A6B07B3AD5B3B31
Filesize: 2.57 GB
Released: 27th Apr 2024

File Format: MKV (Matroska)
Resolution: 1920x1080 px
Aspect Ratio: 16:9
Alternate Releases S L
Chief Detective 1958 S01E04 1080p WEB h264-EDITH 1 0
Chief Detective 1958 S01E04 XviD-AFG 0 1

Chief Detective 1958 S01E04 - Episode 4

Summary:

Yeonghan suspects the orphanage director's involvement while delving into a missing infant case.



Chief Detective 1958 S01E04 2024 1080p DSNP WEB-DL H264 AAC-ADWeb EZTV
Chief Detective 1958 S1E4 Screenshot


General
Unique ID: 191438798913900289686972392061518745478 (0x9005C5834A4FEE4730B240195DD40F86)
Complete name: Chief.Detective.1958.S01E04.2024.1080p.DSNP.WEB-DL.H264.AAC-ADWeb.mkv
Format: Matroska
Format version: Version 4
File size: 2.57 GiB
Duration: 1 h 5 min
Overall bit rate mode: Variable
Overall bit rate: 5 597 kb/s
Frame rate: 23.976 FPS
Encoded date: 2024-04-27 14:42:28 UTC
Writing application: mkvmerge v82.0 ('I'm The President') 64-bit
Writing library: libebml v1.4.5 + libmatroska v1.7.1
Muxer: ADWeb

Video
ID: 1
Format: AVC
Format/Info: Advanced Video Codec
Format profile: High@L4
Format settings: CABAC / 4 Ref Frames
Format settings, CABAC: Yes
Format settings, Reference frames: 4 frames
Codec ID: V_MPEG4/ISO/AVC
Duration: 1 h 5 min
Bit rate mode: Variable
Bit rate: 5 469 kb/s
Maximum bit rate: 12.7 Mb/s
Width: 1 920 pixels
Height: 1 080 pixels
Display aspect ratio: 16:9
Frame rate mode: Constant
Frame rate: 23.976 (24000/1001) FPS
Color space: YUV
Chroma subsampling: 4:2:0
Bit depth: 8 bits
Scan type: Progressive
Bits/(Pixel*Frame): 0.110
Time code of first frame: 00:00:00:0000000000
Stream size: 2.51 GiB (98%)
Default: Yes
Forced: No
Color range: Limited
Color primaries: BT.709
Transfer characteristics: BT.709
Matrix coefficients: BT.709

Audio
ID: 2
Format: AAC LC
Format/Info: Advanced Audio Codec Low Complexity
Codec ID: A_AAC-2
Duration: 1 h 5 min
Bit rate: 125 kb/s
Channel(s): 2 channels
Channel layout: L R
Sampling rate: 48.0 kHz
Frame rate: 46.875 FPS (1024 SPF)
Compression mode: Lossy
Stream size: 58.8 MiB (2%)
Title: Korean [Original]
Language: Korean
Default: Yes
Forced: No

Text #1
ID: 3
Format: UTF-8
Codec ID: S_TEXT/UTF8
Codec ID/Info: UTF-8 Plain Text
Duration: 1 h 5 min
Bit rate: 78 b/s
Frame rate: 0.306 FPS
Count of elements: 1204
Stream size: 37.8 KiB (0%)
Title: English
Language: English
Default: No
Forced: No

Text #2
ID: 4
Format: UTF-8
Codec ID: S_TEXT/UTF8
Codec ID/Info: UTF-8 Plain Text
Duration: 1 h 5 min
Bit rate: 60 b/s
Frame rate: 0.266 FPS
Count of elements: 1040
Stream size: 28.9 KiB (0%)
Title: Chinese Traditional
Language: Chinese
Default: Yes
Forced: No

Text #3
ID: 5
Format: UTF-8
Codec ID: S_TEXT/UTF8
Codec ID/Info: UTF-8 Plain Text
Duration: 1 h 5 min
Bit rate: 59 b/s
Frame rate: 0.257 FPS
Count of elements: 1002
Stream size: 28.5 KiB (0%)
Title: Japanese
Language: Japanese
Default: No
Forced: No

Text #4
ID: 6
Format: UTF-8
Codec ID: S_TEXT/UTF8
Codec ID/Info: UTF-8 Plain Text
Duration: 1 h 5 min
Bit rate: 90 b/s
Frame rate: 0.309 FPS
Count of elements: 1217
Stream size: 43.3 KiB (0%)
Title: Korean
Language: Korean
Default: No
Forced: No

Text #5
ID: 7
Format: UTF-8
Codec ID: S_TEXT/UTF8
Codec ID/Info: UTF-8 Plain Text
Duration: 1 h 5 min
Bit rate: 60 b/s
Frame rate: 0.266 FPS
Count of elements: 1040
Stream size: 28.9 KiB (0%)
Title: Chinese Simplified
Language: Chinese
Default: Yes
Forced: No

ssl  EZTV RSS EZTV Status | EZTV API | DMCA: [email protected]