eztv.wf | eztvstatus.org
Search title:  
TV Packs only
 

Knuckles S01E02 Dont Ever Say I Wasnt There For You 720p AMZN WEB-DL DDP5 1 H 264-NTb EZTV

Episode Breakdown
Knuckles
Knuckles TV Show S01E02

Season: 1
Episode: 2
Air Date: 26 April, 2024
Download Links
     Torrent Download     Magnet Download
     Anonymous Download
Added 1 month ago by eztv (verified).
Tracker Statistics
Seeds: 8
Peers: 1
Stats generated @ 14:43 on 17th Jun 2024
Torrent Info
Torrent File: Knuckles S01E02 Dont Ever Say I Wasnt There For You 720p AMZN WEB-DL DDP5 1 H 264-NTb[EZTVx.to].mkv
Torrent Hash: DB978B572A0157FEA0AEFF5DF0110DB63B4D1488
Filesize: 694 MB
Released: 28th Apr 2024

File Format: MKV (Matroska)
Resolution: 1280x720 px
Aspect Ratio: 16:9
Alternate Releases S L
Knuckles S01E02 1080p WEB H264-SuccessfulCrab 81 16
Knuckles S01E02 XviD-AFG 6 0
Knuckles S01E02 Dont Ever Say I Wasnt There For You 1080p AMZN WEB-DL DDP5 1 Atmos H 264-FLUX 20 3
Knuckles S01E02 480p x264-mSD 3 2

Knuckles S01E02 - Don't Ever Say I Wasn't There For You

Summary:

Wade plans an awesome rescue mission, while Knuckles confronts his captors.



Knuckles S01E02 Dont Ever Say I Wasnt There For You 720p AMZN WEB-DL DDP5 1 H 264-NTb EZTV
Knuckles S1E2 Screenshot


General
Unique ID: 24578575508526773323421908935977525564 (0x127DA95531F805216B4B876D7ACCE13C)
Complete name: Knuckles S01E02 Dont Ever Say I Wasnt There For You 720p AMZN WEB-DL DDP5 1 H 264-NTb.mkv
Format: Matroska
Format version: Version 4
File size: 694 MiB
Duration: 25 min 58 s
Overall bit rate: 3 737 kb/s
Frame rate: 23.976 FPS
Writing application: mkvmerge v81.0 ('Milliontown') 64-bit
Writing library: libebml v1.4.4 + libmatroska v1.7.1

Video
ID: 1
Format: AVC
Format/Info: Advanced Video Codec
Format profile: [email protected]
Format settings: CABAC / 4 Ref Frames
Format settings, CABAC: Yes
Format settings, Reference frames: 4 frames
Format settings, GOP: M=4, N=48
Codec ID: V_MPEG4/ISO/AVC
Duration: 25 min 41 s
Bit rate mode: Constant
Bit rate: 3 000 kb/s
Nominal bit rate: 4 000 kb/s
Width: 1 248 pixels
Height: 520 pixels
Display aspect ratio: 2.40:1
Frame rate mode: Constant
Frame rate: 23.976 (24000/1001) FPS
Color space: YUV
Chroma subsampling: 4:2:0
Bit depth: 8 bits
Scan type: Progressive
Bits/(Pixel*Frame): 0.193
Stream size: 551 MiB (79%)
Default: Yes
Forced: No
Color range: Limited
Color primaries: BT.709
Transfer characteristics: BT.709
Matrix coefficients: BT.709

Audio
ID: 2
Format: E-AC-3 JOC
Format/Info: Enhanced AC-3 with Joint Object Coding
Commercial name: Dolby Digital Plus with Dolby Atmos
Codec ID: A_EAC3
Duration: 25 min 58 s
Bit rate mode: Constant
Bit rate: 768 kb/s
Channel(s): 6 channels
Channel layout: L R C LFE Ls Rs
Sampling rate: 48.0 kHz
Frame rate: 31.250 FPS (1536 SPF)
Compression mode: Lossy
Stream size: 143 MiB (21%)
Language: English
Service kind: Complete Main
Default: Yes
Forced: No
Complexity index: 16
Number of dynamic objects: 15
Bed channel count: 1 channel
Bed channel configuration: LFE

Text #1
ID: 3
Format: UTF-8
Codec ID: S_TEXT/UTF8
Codec ID/Info: UTF-8 Plain Text
Duration: 24 min 37 s
Bit rate: 72 b/s
Frame rate: 0.276 FPS
Count of elements: 408
Stream size: 13.0 KiB (0%)
Language: English (US)
Default: No
Forced: No

Text #2
ID: 4
Format: UTF-8
Codec ID: S_TEXT/UTF8
Codec ID/Info: UTF-8 Plain Text
Duration: 25 min 23 s
Bit rate: 94 b/s
Frame rate: 0.350 FPS
Count of elements: 533
Stream size: 17.6 KiB (0%)
Title: SDH
Language: English (US)
Default: No
Forced: No

Text #3
ID: 5
Format: UTF-8
Codec ID: S_TEXT/UTF8
Codec ID/Info: UTF-8 Plain Text
Duration: 24 min 35 s
Bit rate: 52 b/s
Frame rate: 0.188 FPS
Count of elements: 278
Stream size: 9.50 KiB (0%)
Language: Spanish
Default: No
Forced: No

Text #4
ID: 6
Format: UTF-8
Codec ID: S_TEXT/UTF8
Codec ID/Info: UTF-8 Plain Text
Duration: 24 min 35 s
Bit rate: 52 b/s
Frame rate: 0.188 FPS
Count of elements: 278
Stream size: 9.51 KiB (0%)
Title: SDH
Language: Spanish
Default: No
Forced: No

Menu
00:00:00.000: en:Chapter 1
00:02:06.000: en:Intro
00:11:53.422: en:Chapter 2
00:18:32.654: en:Chapter 3
00:24:34.281: en:Credits

ssl  EZTV RSS EZTV Status | EZTV API | DMCA: [email protected]