eztv.wf | eztvstatus.org
Search title:  
TV Packs only
 

Knuckles S01E06 What Happens in Reno Stays in Reno 720p AMZN WEB-DL DDP5 1 H 264-NTb EZTV

Episode Breakdown
Knuckles
Knuckles TV Show S01E06

Season: 1
Episode: 6
Air Date: 26 April, 2024
Download Links
     Torrent Download     Magnet Download
     Anonymous Download
Added 1 month ago by eztv (verified).
Tracker Statistics
Seeds: 8
Peers: 1
Stats generated @ 16:43 on 17th Jun 2024
Torrent Info
Torrent File: Knuckles S01E06 What Happens in Reno Stays in Reno 720p AMZN WEB-DL DDP5 1 H 264-NTb[EZTVx.to].mkv
Torrent Hash: 5B362F486B20A70847B567D603978D354D11228C
Filesize: 936 MB
Released: 28th Apr 2024

File Format: MKV (Matroska)
Resolution: 1280x720 px
Aspect Ratio: 16:9
Alternate Releases S L
Knuckles S01E06 1080p WEB H264-SuccessfulCrab 74 6
Knuckles S01E06 XviD-AFG 8 1
Knuckles S01E06 1080p HEVC x265-MeGusta 17 4
Knuckles S01E06 What Happens In Reno Stays In Reno 1080p AMZN WEB-DL DDP5 1 Atmos H 264-FLUX 15 2
Knuckles S01E06 480p x264-mSD 8 2

Knuckles S01E06 - What Happens in Reno, Stays in Reno

Summary:

The friendship between Knuckles and Wade is tested - as enemies, new and old, converge in Reno.



Knuckles S01E06 What Happens in Reno Stays in Reno 720p AMZN WEB-DL DDP5 1 H 264-NTb EZTV
Knuckles S1E6 Screenshot


General
Unique ID: 173165987630591407865532095106679780326 (0x82468E5C17969D3B50611C2C14A333E6)
Complete name: Knuckles S01E06 What Happens in Reno Stays in Reno 720p AMZN WEB-DL DDP5 1 H 264-NTb.mkv
Format: Matroska
Format version: Version 4
File size: 936 MiB
Duration: 29 min 27 s
Overall bit rate: 4 442 kb/s
Frame rate: 23.976 FPS
Writing application: mkvmerge v81.0 ('Milliontown') 64-bit
Writing library: libebml v1.4.4 + libmatroska v1.7.1

Video
ID: 1
Format: AVC
Format/Info: Advanced Video Codec
Format profile: [email protected]
Format settings: CABAC / 4 Ref Frames
Format settings, CABAC: Yes
Format settings, Reference frames: 4 frames
Codec ID: V_MPEG4/ISO/AVC
Duration: 29 min 10 s
Bit rate mode: Constant
Bit rate: 3 708 kb/s
Nominal bit rate: 4 000 kb/s
Width: 1 248 pixels
Height: 520 pixels
Display aspect ratio: 2.40:1
Frame rate mode: Constant
Frame rate: 23.976 (24000/1001) FPS
Color space: YUV
Chroma subsampling: 4:2:0
Bit depth: 8 bits
Scan type: Progressive
Bits/(Pixel*Frame): 0.238
Stream size: 774 MiB (83%)
Default: Yes
Forced: No
Color range: Limited
Color primaries: BT.709
Transfer characteristics: BT.709
Matrix coefficients: BT.709

Audio
ID: 2
Format: E-AC-3 JOC
Format/Info: Enhanced AC-3 with Joint Object Coding
Commercial name: Dolby Digital Plus with Dolby Atmos
Codec ID: A_EAC3
Duration: 29 min 27 s
Bit rate mode: Constant
Bit rate: 768 kb/s
Channel(s): 6 channels
Channel layout: L R C LFE Ls Rs
Sampling rate: 48.0 kHz
Frame rate: 31.250 FPS (1536 SPF)
Compression mode: Lossy
Stream size: 162 MiB (17%)
Language: English
Service kind: Complete Main
Default: Yes
Forced: No
Complexity index: 16
Number of dynamic objects: 15
Bed channel count: 1 channel
Bed channel configuration: LFE

Text #1
ID: 3
Format: UTF-8
Codec ID: S_TEXT/UTF8
Codec ID/Info: UTF-8 Plain Text
Duration: 28 min 37 s
Bit rate: 65 b/s
Frame rate: 0.248 FPS
Count of elements: 426
Stream size: 13.7 KiB (0%)
Language: English (US)
Default: No
Forced: No

Text #2
ID: 4
Format: UTF-8
Codec ID: S_TEXT/UTF8
Codec ID/Info: UTF-8 Plain Text
Duration: 28 min 41 s
Bit rate: 93 b/s
Frame rate: 0.367 FPS
Count of elements: 632
Stream size: 19.7 KiB (0%)
Title: SDH
Language: English (US)
Default: No
Forced: No

Text #3
ID: 5
Format: UTF-8
Codec ID: S_TEXT/UTF8
Codec ID/Info: UTF-8 Plain Text
Duration: 28 min 38 s
Bit rate: 52 b/s
Frame rate: 0.194 FPS
Count of elements: 334
Stream size: 11.0 KiB (0%)
Language: Spanish
Default: No
Forced: No

Menu
00:00:00.000: en:Chapter 1
00:00:12.121: en:Intro
00:06:49.117: en:Chapter 2
00:17:07.860: en:Chapter 3
00:26:12.070: en:Chapter 4

ssl  EZTV RSS EZTV Status | EZTV API | DMCA: [email protected]