eztv.wf | eztvstatus.org
Search title:  
TV Packs only
 

The Tattooist of Auschwitz S01E02 1080p WEBRip 10Bit DDP5 1 HEVC-d3g EZTV

Episode Breakdown
The Tattooist of Auschwitz
The Tattooist of Auschwitz TV Show S01E02

Season: 1
Episode: 2
Air Date: 2 May, 2024
Download Links
     Torrent Download     Magnet Download
     Anonymous Download
Added 2 months ago by eztv (verified).
Tracker Statistics
Seeds: 32
Peers: 6
Stats generated @ 15:01 on 14th Jul 2024
Torrent Info
Torrent File: The Tattooist of Auschwitz S01E02 1080p WEBRip 10Bit DDP5 1 HEVC-d3g[EZTVx.to].mkv
Torrent Hash: E356CFAD2F3908BE9FBD229FD541D80D5FAED038
Filesize: 1.20 GB
Released: 6th May 2024

File Format: MKV (Matroska)
Resolution: 1920x1080 px
Aspect Ratio: 16:9
Alternate Releases S L
The Tattooist of Auschwitz S01E02 1080p WEB H264-DramaticUppishBisonOfBeauty 23 0
The Tattooist of Auschwitz S01E02 1080p SKST WEB-DL DD 5 1 H 264-playWEB 11 4

The Tattooist of Auschwitz S01E02 - Episode 2

Summary:

Lali contacts Gita through a risky deal with Baretzki, putting her and their new love in danger.



The Tattooist of Auschwitz S01E02 1080p WEBRip 10Bit DDP5 1 HEVC-d3g EZTV
The Tattooist of Auschwitz S1E2 Screenshot


General
Unique ID: 184708097886733963129392305099843453697 (0x8AF57C54CF2D323A9B7B575FE2024301)
Complete name: The Tattooist of Auschwitz S01E02 1080p WEBRip 10Bit DDP5 1 HEVC-d3g.mkv
Format: Matroska
Format version: Version 2
File size: 1.20 GiB
Duration: 51 min 40 s
Overall bit rate: 3 320 kb/s
Frame rate: 25.000 FPS
Movie name: The.Tattooist.of.Auschwitz.S01E02.1080p.WEBRip.10Bit.DDP5.1.HEVC-d3g
Encoded date: 2024-05-03 09:18:16 UTC
Writing application: DVDFab 12.1.1.5
Writing library: libebml v1.4.2 + libmatroska v1.6.3

Video
ID: 1
Format: HEVC
Format/Info: High Efficiency Video Coding
Format profile: Main 10@L4@Main
Codec ID: V_MPEGH/ISO/HEVC
Duration: 51 min 40 s
Bit rate: 3 099 kb/s
Width: 1 920 pixels
Height: 1 080 pixels
Display aspect ratio: 16:9
Frame rate mode: Constant
Frame rate: 25.000 FPS
Color space: YUV
Chroma subsampling: 4:2:0
Bit depth: 10 bits
Bits/(Pixel*Frame): 0.060
Stream size: 1.12 GiB (93%)
Default: Yes
Forced: No
Color range: Limited
Color primaries: BT.709
Transfer characteristics: BT.709
Matrix coefficients: BT.709

Audio
ID: 2
Format: E-AC-3
Format/Info: Enhanced AC-3
Commercial name: Dolby Digital Plus
Codec ID: A_EAC3
Duration: 51 min 40 s
Bit rate mode: Constant
Bit rate: 192 kb/s
Channel(s): 6 channels
Channel layout: L R C LFE Ls Rs
Sampling rate: 48.0 kHz
Frame rate: 31.250 FPS (1536 SPF)
Compression mode: Lossy
Stream size: 71.0 MiB (6%)
Language: English
Service kind: Complete Main
Default: Yes
Forced: No

Text
ID: 3
Format: PGS
Codec ID: S_HDMV/PGS
Codec ID/Info: Picture based subtitle format used on BDs/HD-DVDs
Duration: 50 min 13 s
Bit rate: 27.7 kb/s
Frame rate: 0.461 FPS
Count of elements: 1390
Stream size: 9.96 MiB (1%)
Language: English
Default: Yes
Forced: No

ssl  EZTV RSS EZTV Status | EZTV API | DMCA: [email protected]