eztv.wf | eztvstatus.org
Search title:  
TV Packs only
 

The Tattooist of Auschwitz S01E06 1080p WEBRip 10Bit DDP5 1 HEVC-d3g EZTV

Episode Breakdown
The Tattooist of Auschwitz
The Tattooist of Auschwitz TV Show S01E06

Season: 1
Episode: 6
Air Date: 2 May, 2024
Download Links
     Torrent Download     Magnet Download
     Anonymous Download
Added 1 month ago by eztv (verified).
Tracker Statistics
Seeds: 40
Peers: 26
Stats generated @ 14:56 on 17th Jun 2024
Torrent Info
Torrent File: The Tattooist of Auschwitz S01E06 1080p WEBRip 10Bit DDP5 1 HEVC-d3g[EZTVx.to].mkv
Torrent Hash: 34CB52FBB86334AFFE3BFF098A9E6227DFF930F7
Filesize: 1.33 GB
Released: 6th May 2024

File Format: MKV (Matroska)
Resolution: 1920x1080 px
Aspect Ratio: 16:9
Alternate Releases S L
The Tattooist of Auschwitz S01E06 1080p WEB H264-SkinnyHelpfulWildcatOfMaturity 13 2
The Tattooist of Auschwitz S01E06 XviD-AFG 1 1
The Tattooist of Auschwitz S01E06 1080p HEVC x265-MeGusta 31 8
The Tattooist of Auschwitz S01E06 1080p SKST WEB-DL DD 5 1 H 264-playWEB 48 5

The Tattooist of Auschwitz S01E06 - Episode 6

Summary:

With no idea whether she's alive or dead, Lali escapes and heads to Bratislava to find Gita.



The Tattooist of Auschwitz S01E06 1080p WEBRip 10Bit DDP5 1 HEVC-d3g EZTV
The Tattooist of Auschwitz S1E6 Screenshot


General
Unique ID: 220853913175764160079552275249956676368 (0xA626EA9DE935C99FA307D9D50BC46310)
Complete name: The Tattooist of Auschwitz S01E06 1080p WEBRip 10Bit DDP5 1 HEVC-d3g.mkv
Format: Matroska
Format version: Version 2
File size: 1.33 GiB
Duration: 58 min 7 s
Overall bit rate: 3 286 kb/s
Frame rate: 25.000 FPS
Movie name: The.Tattooist.of.Auschwitz.S01E06.1080p.WEBRip.10Bit.DDP5.1.HEVC-d3g
Encoded date: 2024-05-03 09:36:04 UTC
Writing application: DVDFab 12.1.1.5
Writing library: libebml v1.4.2 + libmatroska v1.6.3

Video
ID: 1
Format: HEVC
Format/Info: High Efficiency Video Coding
Format profile: Main 10@L4@Main
Codec ID: V_MPEGH/ISO/HEVC
Duration: 58 min 7 s
Bit rate: 3 065 kb/s
Width: 1 920 pixels
Height: 1 080 pixels
Display aspect ratio: 16:9
Frame rate mode: Constant
Frame rate: 25.000 FPS
Color space: YUV
Chroma subsampling: 4:2:0
Bit depth: 10 bits
Bits/(Pixel*Frame): 0.059
Stream size: 1.24 GiB (93%)
Default: Yes
Forced: No
Color range: Limited
Color primaries: BT.709
Transfer characteristics: BT.709
Matrix coefficients: BT.709

Audio
ID: 2
Format: E-AC-3
Format/Info: Enhanced AC-3
Commercial name: Dolby Digital Plus
Codec ID: A_EAC3
Duration: 58 min 7 s
Bit rate mode: Constant
Bit rate: 192 kb/s
Channel(s): 6 channels
Channel layout: L R C LFE Ls Rs
Sampling rate: 48.0 kHz
Frame rate: 31.250 FPS (1536 SPF)
Compression mode: Lossy
Stream size: 79.8 MiB (6%)
Language: English
Service kind: Complete Main
Default: Yes
Forced: No

Text
ID: 3
Format: PGS
Codec ID: S_HDMV/PGS
Codec ID/Info: Picture based subtitle format used on BDs/HD-DVDs
Duration: 57 min 31 s
Bit rate: 26.4 kb/s
Frame rate: 0.409 FPS
Count of elements: 1412
Stream size: 10.8 MiB (1%)
Language: English
Default: Yes
Forced: No

ssl  EZTV RSS EZTV Status | EZTV API | DMCA: [email protected]