eztv.wf | eztvstatus.org
Search title:  
TV Packs only
 

The Tattooist of Auschwitz S01E01 1080p WEBRip 10Bit DDP5 1 HEVC-d3g EZTV

Episode Breakdown
The Tattooist of Auschwitz
The Tattooist of Auschwitz TV Show S01E01

Season: 1
Episode: 1
Air Date: 2 May, 2024
Download Links
     Torrent Download     Magnet Download
     Anonymous Download
Added 1 month ago by eztv (verified).
Tracker Statistics
Seeds: 16
Peers: 9
Stats generated @ 15:34 on 17th Jun 2024
Torrent Info
Torrent File: The Tattooist of Auschwitz S01E01 1080p WEBRip 10Bit DDP5 1 HEVC-d3g[EZTVx.to].mkv
Torrent Hash: BE3F476440F253196FE8F64B126479C503D3EF3E
Filesize: 1.28 GB
Released: 6th May 2024

File Format: MKV (Matroska)
Resolution: 1920x1080 px
Aspect Ratio: 16:9
Alternate Releases S L
The Tattooist of Auschwitz S01E01 1080p WEB H264-SplendidViridianPotooOfPiety 58 41
The Tattooist of Auschwitz S01E01 1080p HEVC x265-MeGusta 39 38
The Tattooist of Auschwitz S01E01 XviD-AFG 9 2
The Tattooist of Auschwitz S01E01 1080p SKST WEB-DL DD 5 1 H 264-playWEB 28 8

The Tattooist of Auschwitz S01E01 - Episode 1

Summary:

Heather meets Lali, a survivor of Auschwitz, who tells her his extraordinary life story of love and survival in the concentration camp.



The Tattooist of Auschwitz S01E01 1080p WEBRip 10Bit DDP5 1 HEVC-d3g EZTV
The Tattooist of Auschwitz S1E1 Screenshot


General
Unique ID: 211668611112603956302627012407458376887 (0x9F3DE442B4E45761B9365C0FB8C9ACB7)
Complete name: The Tattooist of Auschwitz S01E01 1080p WEBRip 10Bit DDP5 1 HEVC-d3g.mkv
Format: Matroska
Format version: Version 2
File size: 1.28 GiB
Duration: 54 min 37 s
Overall bit rate: 3 364 kb/s
Frame rate: 25.000 FPS
Movie name: The.Tattooist.of.Auschwitz.S01E01.1080p.WEBRip.10Bit.DDP5.1.HEVC-d3g
Encoded date: 2024-05-03 09:13:12 UTC
Writing application: DVDFab 12.1.1.5
Writing library: libebml v1.4.2 + libmatroska v1.6.3

Video
ID: 1
Format: HEVC
Format/Info: High Efficiency Video Coding
Format profile: Main 10@L4@Main
Codec ID: V_MPEGH/ISO/HEVC
Duration: 54 min 37 s
Bit rate: 3 144 kb/s
Width: 1 920 pixels
Height: 1 080 pixels
Display aspect ratio: 16:9
Frame rate mode: Constant
Frame rate: 25.000 FPS
Color space: YUV
Chroma subsampling: 4:2:0
Bit depth: 10 bits
Bits/(Pixel*Frame): 0.061
Stream size: 1.20 GiB (93%)
Default: Yes
Forced: No
Color range: Limited
Color primaries: BT.709
Transfer characteristics: BT.709
Matrix coefficients: BT.709

Audio
ID: 2
Format: E-AC-3
Format/Info: Enhanced AC-3
Commercial name: Dolby Digital Plus
Codec ID: A_EAC3
Duration: 54 min 37 s
Bit rate mode: Constant
Bit rate: 192 kb/s
Channel(s): 6 channels
Channel layout: L R C LFE Ls Rs
Sampling rate: 48.0 kHz
Frame rate: 31.250 FPS (1536 SPF)
Compression mode: Lossy
Stream size: 75.0 MiB (6%)
Language: English
Service kind: Complete Main
Default: Yes
Forced: No

Text
ID: 3
Format: PGS
Codec ID: S_HDMV/PGS
Codec ID/Info: Picture based subtitle format used on BDs/HD-DVDs
Duration: 54 min 11 s
Bit rate: 26.3 kb/s
Frame rate: 0.415 FPS
Count of elements: 1348
Stream size: 10.2 MiB (1%)
Language: English
Default: Yes
Forced: No

ssl  EZTV RSS EZTV Status | EZTV API | DMCA: [email protected]