eztv.wf | eztvstatus.org
Search title:  
TV Packs only
 

House of the Owl S01E09 Where You Keep Your Owls 720p DSNP WEB-DL DD 5 1 H 264-playWEB EZTV

Episode Breakdown
House of the Owl
House of the Owl TV Show S01E09

Season: 1
Episode: 9
Air Date: 8 May, 2024
Download Links
     Torrent Download     Magnet Download
     Anonymous Download
Added 1 month ago by eztv (verified).
Tracker Statistics
Seeds: 1
Peers: 1
Stats generated @ 14:53 on 17th Jun 2024
Torrent Info
Torrent File: House of the Owl S01E09 Where You Keep Your Owls 720p DSNP WEB-DL DD 5 1 H 264-playWEB[EZTVx.to].mkv
Torrent Hash: 849FB21D7B8D2716EA5A3AD3A00A3A4F7F7916AB
Filesize: 916 MB
Released: 8th May 2024

File Format: MKV (Matroska)
Resolution: 1280x720 px
Aspect Ratio: 16:9
Alternate Releases S L
House of the Owl S01E09 1080p WEB h264-EDITH 2 3
House of the Owl S01E09 XviD-AFG 5 1

House of the Owl S01E09 - Where You Keep Your Owls

Summary:

Ryutaro is caught off guard with the latest votes in the legislature as he discovers that there is someone else who might be pulling the politicians' strings.



House of the Owl S01E09 Where You Keep Your Owls 720p DSNP WEB-DL DD 5 1 H 264-playWEB EZTV
House of the Owl S1E9 Screenshot


General
Unique ID: 165855328607597090930362469058020516172 (0x7CC6930A93EFDB34843FEE50FFEA214C)
Complete name: House of the Owl S01E09 Where You Keep Your Owls 720p DSNP WEB-DL DD 5 1 H 264-playWEB.mkv
Format: Matroska
Format version: Version 4
File size: 916 MiB
Duration: 48 min 37 s
Overall bit rate mode: Variable
Overall bit rate: 2 634 kb/s
Frame rate: 23.976 FPS
Writing application: mkvmerge v84.0 ('Sleeper') 64-bit
Writing library: libebml v1.4.5 + libmatroska v1.7.1

Video
ID: 1
Format: AVC
Format/Info: Advanced Video Codec
Format profile: [email protected]
Format settings: CABAC / 4 Ref Frames
Format settings, CABAC: Yes
Format settings, Reference frames: 4 frames
Codec ID: V_MPEG4/ISO/AVC
Duration: 48 min 37 s
Bit rate mode: Variable
Bit rate: 2 374 kb/s
Maximum bit rate: 6 375 kb/s
Width: 1 280 pixels
Height: 720 pixels
Display aspect ratio: 16:9
Frame rate mode: Constant
Frame rate: 23.976 (24000/1001) FPS
Color space: YUV
Chroma subsampling: 4:2:0
Bit depth: 8 bits
Scan type: Progressive
Bits/(Pixel*Frame): 0.107
Time code of first frame: 00:00:00:0000000000
Stream size: 826 MiB (90%)
Default: Yes
Forced: No
Color range: Limited
Color primaries: BT.709
Transfer characteristics: BT.709
Matrix coefficients: BT.709

Audio
ID: 2
Format: E-AC-3
Format/Info: Enhanced AC-3
Commercial name: Dolby Digital Plus
Codec ID: A_EAC3
Duration: 48 min 37 s
Bit rate mode: Constant
Bit rate: 256 kb/s
Channel(s): 6 channels
Channel layout: L R C LFE Ls Rs
Sampling rate: 48.0 kHz
Frame rate: 31.250 FPS (1536 SPF)
Compression mode: Lossy
Stream size: 89.0 MiB (10%)
Language: Japanese
Service kind: Complete Main
Default: Yes
Forced: No

Text #1
ID: 3
Format: UTF-8
Codec ID: S_TEXT/UTF8
Codec ID/Info: UTF-8 Plain Text
Duration: 46 min 52 s
Bit rate: 46 b/s
Frame rate: 0.192 FPS
Count of elements: 541
Stream size: 15.9 KiB (0%)
Language: Danish
Default: No
Forced: No

Text #2
ID: 4
Format: UTF-8
Codec ID: S_TEXT/UTF8
Codec ID/Info: UTF-8 Plain Text
Duration: 46 min 52 s
Bit rate: 47 b/s
Frame rate: 0.180 FPS
Count of elements: 507
Stream size: 16.5 KiB (0%)
Language: German
Default: No
Forced: No

Text #3
ID: 5
Format: UTF-8
Codec ID: S_TEXT/UTF8
Codec ID/Info: UTF-8 Plain Text
Duration: 46 min 52 s
Bit rate: 47 b/s
Frame rate: 0.191 FPS
Count of elements: 538
Stream size: 16.1 KiB (0%)
Language: English
Default: No
Forced: No

Text #4
ID: 6
Format: UTF-8
Codec ID: S_TEXT/UTF8
Codec ID/Info: UTF-8 Plain Text
Duration: 46 min 52 s
Bit rate: 51 b/s
Frame rate: 0.210 FPS
Count of elements: 591
Stream size: 17.8 KiB (0%)
Title: SDH
Language: English
Default: No
Forced: No

Text #5
ID: 7
Format: UTF-8
Codec ID: S_TEXT/UTF8
Codec ID/Info: UTF-8 Plain Text
Duration: 46 min 52 s
Bit rate: 46 b/s
Frame rate: 0.187 FPS
Count of elements: 526
Stream size: 15.9 KiB (0%)
Title: Latin American
Language: Spanish
Default: No
Forced: No

Text #6
ID: 8
Format: UTF-8
Codec ID: S_TEXT/UTF8
Codec ID/Info: UTF-8 Plain Text
Duration: 47 min 11 s
Bit rate: 43 b/s
Frame rate: 0.182 FPS
Count of elements: 516
Stream size: 15.1 KiB (0%)
Title: European
Language: Spanish
Default: No
Forced: No

Text #7
ID: 9
Format: UTF-8
Codec ID: S_TEXT/UTF8
Codec ID/Info: UTF-8 Plain Text
Duration: 46 min 52 s
Bit rate: 42 b/s
Frame rate: 0.188 FPS
Count of elements: 530
Stream size: 14.6 KiB (0%)
Language: Finnish
Default: No
Forced: No

Text #8
ID: 10
Format: UTF-8
Codec ID: S_TEXT/UTF8
Codec ID/Info: UTF-8 Plain Text
Duration: 47 min 11 s
Bit rate: 47 b/s
Frame rate: 0.193 FPS
Count of elements: 546
Stream size: 16.5 KiB (0%)
Title: European
Language: French
Default: No
Forced: No

Text #9
ID: 11
Format: UTF-8
Codec ID: S_TEXT/UTF8
Codec ID/Info: UTF-8 Plain Text
Duration: 46 min 52 s
Bit rate: 43 b/s
Frame rate: 0.181 FPS
Count of elements: 510
Stream size: 15.0 KiB (0%)
Language: Italian
Default: No
Forced: No

Text #10
ID: 12
Format: UTF-8
Codec ID: S_TEXT/UTF8
Codec ID/Info: UTF-8 Plain Text
Duration: 45 min 10 s
Bit rate: 68 b/s
Frame rate: 0.223 FPS
Count of elements: 604
Stream size: 22.5 KiB (0%)
Language: Japanese
Default: No
Forced: No

Text #11
ID: 13
Format: UTF-8
Codec ID: S_TEXT/UTF8
Codec ID/Info: UTF-8 Plain Text
Duration: 45 min 10 s
Bit rate: 68 b/s
Frame rate: 0.223 FPS
Count of elements: 604
Stream size: 22.7 KiB (0%)
Title: SDH
Language: Japanese
Default: No
Forced: No

Text #12
ID: 14
Format: UTF-8
Codec ID: S_TEXT/UTF8
Codec ID/Info: UTF-8 Plain Text
Duration: 47 min 11 s
Bit rate: 54 b/s
Frame rate: 0.194 FPS
Count of elements: 550
Stream size: 18.9 KiB (0%)
Language: Korean
Default: No
Forced: No

Text #13
ID: 15
Format: UTF-8
Codec ID: S_TEXT/UTF8
Codec ID/Info: UTF-8 Plain Text
Duration: 47 min 11 s
Bit rate: 61 b/s
Frame rate: 0.213 FPS
Count of elements: 603
Stream size: 21.2 KiB (0%)
Title: SDH
Language: Korean
Default: No
Forced: No

Text #14
ID: 16
Format: UTF-8
Codec ID: S_TEXT/UTF8
Codec ID/Info: UTF-8 Plain Text
Duration: 46 min 52 s
Bit rate: 44 b/s
Frame rate: 0.157 FPS
Count of elements: 442
Stream size: 15.3 KiB (0%)
Language: Dutch
Default: No
Forced: No

Text #15
ID: 17
Format: UTF-8
Codec ID: S_TEXT/UTF8
Codec ID/Info: UTF-8 Plain Text
Duration: 46 min 52 s
Bit rate: 42 b/s
Frame rate: 0.181 FPS
Count of elements: 510
Stream size: 14.5 KiB (0%)
Language: Norwegian
Default: No
Forced: No

Text #16
ID: 18
Format: UTF-8
Codec ID: S_TEXT/UTF8
Codec ID/Info: UTF-8 Plain Text
Duration: 46 min 52 s
Bit rate: 45 b/s
Frame rate: 0.188 FPS
Count of elements: 528
Stream size: 15.7 KiB (0%)
Language: Polish
Default: No
Forced: No

Text #17
ID: 19
Format: UTF-8
Codec ID: S_TEXT/UTF8
Codec ID/Info: UTF-8 Plain Text
Duration: 46 min 52 s
Bit rate: 45 b/s
Frame rate: 0.190 FPS
Count of elements: 534
Stream size: 15.5 KiB (0%)
Title: Brazilian
Language: Portuguese
Default: No
Forced: No

Text #18
ID: 20
Format: UTF-8
Codec ID: S_TEXT/UTF8
Codec ID/Info: UTF-8 Plain Text
Duration: 47 min 11 s
Bit rate: 47 b/s
Frame rate: 0.193 FPS
Count of elements: 546
Stream size: 16.3 KiB (0%)
Title: European
Language: Portuguese
Default: No
Forced: No

Text #19
ID: 21
Format: UTF-8
Codec ID: S_TEXT/UTF8
Codec ID/Info: UTF-8 Plain Text
Duration: 46 min 52 s
Bit rate: 44 b/s
Frame rate: 0.194 FPS
Count of elements: 545
Stream size: 15.2 KiB (0%)
Language: Swedish
Default: No
Forced: No

Text #20
ID: 22
Format: UTF-8
Codec ID: S_TEXT/UTF8
Codec ID/Info: UTF-8 Plain Text
Duration: 46 min 52 s
Bit rate: 47 b/s
Frame rate: 0.191 FPS
Count of elements: 536
Stream size: 16.2 KiB (0%)
Language: Turkish
Default: No
Forced: No

Text #21
ID: 23
Format: UTF-8
Codec ID: S_TEXT/UTF8
Codec ID/Info: UTF-8 Plain Text
Duration: 47 min 11 s
Bit rate: 43 b/s
Frame rate: 0.194 FPS
Count of elements: 548
Stream size: 15.2 KiB (0%)
Title: Traditional
Language: Chinese
Default: No
Forced: No

Menu
00:00:30.781: en:Intro
00:01:33.927: en:Scene 1
00:47:57.711: en:Credits

ssl  EZTV RSS EZTV Status | EZTV API | DMCA: [email protected]