eztv.wf | eztvstatus.org
Search title:  
TV Packs only
 

Chief Detective 1958 S01E08 2024 1080p DSNP WEB-DL H264 AAC-ADWeb EZTV

Episode Breakdown
Chief Detective 1958
Chief Detective 1958 TV Show S01E08

Season: 1
Episode: 8
Air Date: 11 May, 2024
Download Links
     Torrent Download     Magnet Download
     Anonymous Download
Added 1 month ago by eztv (verified).
Tracker Statistics
Seeds: 2
Peers: 1
Stats generated @ 06:20 on 22nd Jun 2024
Torrent Info
Torrent File: Chief.Detective.1958.S01E08.2024.1080p.DSNP.WEB-DL.H264.AAC-ADWeb[EZTVx.to].mkv
Torrent Hash: 8C25754F6AB38939B3D691EB4C9A4C2782D8C486
Filesize: 2.66 GB
Released: 11th May 2024

File Format: MKV (Matroska)
Resolution: 1920x1080 px
Aspect Ratio: 16:9
Alternate Releases S L
Chief Detective 1958 S01E08 1080p WEB h264-EDITH 1 2

Chief Detective 1958 S01E08 - Episode 8

Summary:

Two violent crimes occur overnight, and Unit 1 handles both cases due to the lack of personnel.



Chief Detective 1958 S01E08 2024 1080p DSNP WEB-DL H264 AAC-ADWeb EZTV
Chief Detective 1958 S1E8 Screenshot


General
Unique ID: 97324840460156721438323839395879309998 (0x4938151BEF2A20F150AFF8785D61D2AE)
Complete name: Chief.Detective.1958.S01E08.2024.1080p.DSNP.WEB-DL.H264.AAC-ADWeb.mkv
Format: Matroska
Format version: Version 4
File size: 2.66 GiB
Duration: 1 h 7 min
Overall bit rate mode: Variable
Overall bit rate: 5 634 kb/s
Frame rate: 23.976 FPS
Encoded date: 2024-05-11 14:31:15 UTC
Writing application: mkvmerge v83.0 ('Circle Of Friends') 64-bit
Writing library: libebml v1.4.5 + libmatroska v1.7.1

Video
ID: 1
Format: AVC
Format/Info: Advanced Video Codec
Format profile: High@L4
Format settings: CABAC / 4 Ref Frames
Format settings, CABAC: Yes
Format settings, Reference frames: 4 frames
Codec ID: V_MPEG4/ISO/AVC
Duration: 1 h 7 min
Bit rate mode: Variable
Bit rate: 5 506 kb/s
Maximum bit rate: 12.7 Mb/s
Width: 1 920 pixels
Height: 1 080 pixels
Display aspect ratio: 16:9
Frame rate mode: Constant
Frame rate: 23.976 (24000/1001) FPS
Color space: YUV
Chroma subsampling: 4:2:0
Bit depth: 8 bits
Scan type: Progressive
Bits/(Pixel*Frame): 0.111
Time code of first frame: 00:00:00:0000000000
Stream size: 2.60 GiB (98%)
Default: Yes
Forced: No
Color range: Limited
Color primaries: BT.709
Transfer characteristics: BT.709
Matrix coefficients: BT.709

Audio
ID: 2
Format: AAC LC
Format/Info: Advanced Audio Codec Low Complexity
Codec ID: A_AAC-2
Duration: 1 h 7 min
Bit rate: 125 kb/s
Channel(s): 2 channels
Channel layout: L R
Sampling rate: 48.0 kHz
Frame rate: 46.875 FPS (1024 SPF)
Compression mode: Lossy
Stream size: 60.6 MiB (2%)
Title: Korean
Language: Korean
Default: Yes
Forced: No

Text #1
ID: 3
Format: UTF-8
Codec ID: S_TEXT/UTF8
Codec ID/Info: UTF-8 Plain Text
Duration: 1 h 7 min
Bit rate: 68 b/s
Frame rate: 0.289 FPS
Count of elements: 1165
Stream size: 33.6 KiB (0%)
Title: Chinese (Traditional)
Language: Chinese
Default: No
Forced: No

Text #2
ID: 4
Format: UTF-8
Codec ID: S_TEXT/UTF8
Codec ID/Info: UTF-8 Plain Text
Duration: 1 h 7 min
Bit rate: 81 b/s
Frame rate: 0.323 FPS
Count of elements: 1309
Stream size: 40.3 KiB (0%)
Title: English [CC]
Language: English
Default: No
Forced: No

Text #3
ID: 5
Format: UTF-8
Codec ID: S_TEXT/UTF8
Codec ID/Info: UTF-8 Plain Text
Duration: 1 h 7 min
Bit rate: 68 b/s
Frame rate: 0.269 FPS
Count of elements: 1083
Stream size: 33.7 KiB (0%)
Title: Japanese
Language: Japanese
Default: No
Forced: No

Text #4
ID: 6
Format: UTF-8
Codec ID: S_TEXT/UTF8
Codec ID/Info: UTF-8 Plain Text
Duration: 1 h 7 min
Bit rate: 97 b/s
Frame rate: 0.336 FPS
Count of elements: 1363
Stream size: 48.0 KiB (0%)
Title: Korean [CC]
Language: Korean
Default: No
Forced: No

Text #5
ID: 7
Format: UTF-8
Codec ID: S_TEXT/UTF8
Codec ID/Info: UTF-8 Plain Text
Duration: 1 h 7 min
Bit rate: 68 b/s
Frame rate: 0.289 FPS
Count of elements: 1165
Stream size: 33.6 KiB (0%)
Title: Chinese (Simplified)
Language: Chinese
Default: Yes
Forced: No

ssl  EZTV RSS EZTV Status | EZTV API | DMCA: [email protected]