eztv.wf | eztvstatus.org
Search title:  
TV Packs only
 

Modern Dynasty S02E04 2022 1080p WEB-DL H264 AAC-HHWEB EZTV

Episode Breakdown
Modern Dynasty
Modern Dynasty TV Show S02E04

Season: 2
Episode: 4
Download Links
     Torrent Download     Magnet Download
     Anonymous Download
Added 1 month ago by eztv (verified).
Tracker Statistics
Seeds: 1
Peers: 0
Stats generated @ 22:26 on 15th Jun 2024
Torrent Info
Torrent File: Modern.Dynasty.S02E04.2022.1080p.WEB-DL.H264.AAC-HHWEB[EZTVx.to].mkv
Torrent Hash: 23DA107931BC26EF9E0ED126427DA2CDD633DBA5
Filesize: 372 MB
Released: 14th May 2024

File Format: MKV (Matroska)
Resolution: 1920x1080 px
Aspect Ratio: 16:9

Episode Description


Modern Dynasty S02E04 2022 1080p WEB-DL H264 AAC-HHWEB EZTV
Modern Dynasty S2E4 Screenshot


General
Unique ID: 126364287686965810395004786276382885716 (0x5F10E065F52364449C695108D2254754)
Complete name: Modern.Dynasty.S02E04.2022.1080p.WEB-DL.H264.AAC-HHWEB.mkv
Format: Matroska
Format version: Version 4
File size: 372 MiB
Duration: 44 min 32 s
Overall bit rate: 1 166 kb/s
Frame rate: 25.000 FPS
Encoded date: 2024-05-13 04:48:01 UTC
Writing application: mkvmerge v80.0 ('Roundabout') 64-bit
Writing library: libebml v1.4.4 + libmatroska v1.7.1

Video
ID: 1
Format: AVC
Format/Info: Advanced Video Codec
Format profile: High@L5
Format settings: CABAC / 5 Ref Frames
Format settings, CABAC: Yes
Format settings, Reference frames: 5 frames
Codec ID: V_MPEG4/ISO/AVC
Duration: 44 min 32 s
Bit rate: 875 kb/s
Width: 1 920 pixels
Height: 1 080 pixels
Display aspect ratio: 16:9
Frame rate mode: Constant
Frame rate: 25.000 FPS
Color space: YUV
Chroma subsampling: 4:2:0
Bit depth: 8 bits
Scan type: Progressive
Bits/(Pixel*Frame): 0.017
Stream size: 279 MiB (75%)
Default: Yes
Forced: No
Color range: Limited
Color primaries: BT.709
Transfer characteristics: BT.709
Matrix coefficients: BT.709

Audio #1
ID: 2
Format: AAC LC
Format/Info: Advanced Audio Codec Low Complexity
Codec ID: A_AAC-2
Duration: 44 min 32 s
Bit rate: 96.0 kb/s
Channel(s): 2 channels
Channel layout: L R
Sampling rate: 44.1 kHz
Frame rate: 43.066 FPS (1024 SPF)
Compression mode: Lossy
Stream size: 30.6 MiB (8%)
Title: T F
Language: Chinese
Default: Yes
Forced: No

Audio #2
ID: 3
Format: AAC LC
Format/Info: Advanced Audio Codec Low Complexity
Codec ID: A_AAC-2
Duration: 44 min 32 s
Bit rate: 192 kb/s
Channel(s): 2 channels
Channel layout: L R
Sampling rate: 44.1 kHz
Frame rate: 43.066 FPS (1024 SPF)
Compression mode: Lossy
Stream size: 61.2 MiB (16%)
Title: t F
Language: Cantonese
Default: Yes
Forced: No

ssl  EZTV RSS EZTV Status | EZTV API | DMCA: [email protected]