eztv.wf | eztvstatus.org
Search title:  
TV Packs only
 

The Rookie S06E09 The Squeeze 1080p AMZN WEB-DL DDP5 1 H 264-FLUX EZTV

Episode Breakdown
The Rookie
The Rookie TV Show S06E09

Season: 6
Episode: 9
Air Date: 14 May, 2024
Download Links
     Torrent Download     Magnet Download
     Anonymous Download
Added 13 days ago by eztv (verified).
Tracker Statistics
Seeds: 83
Peers: 12
Stats generated @ 03:24 on 29th May 2024
Torrent Info
Torrent File: The Rookie S06E09 The Squeeze 1080p AMZN WEB-DL DDP5 1 H 264-FLUX[EZTVx.to].mkv
Torrent Hash: DA8952457436C8641AA28C6C8D4926AD985BC415
Filesize: 3.01 GB
Released: 15th May 2024

File Format: MKV (Matroska)
Resolution: 1920x1080 px
Aspect Ratio: 16:9
Alternate Releases S L
The Rookie S06E09 720p HEVC x265-MeGusta 94 4
The Rookie S06E09 The Squeeze 720p AMZN WEB-DL DDP5 1 H 264-FLUX 32 6
The Rookie S06E09 WEBRip x264-XEN0N 32 3
The Rookie S06E09 720p x264-FENiX 35 7
The Rookie S06E09 The Squeeze 1080p AMZN WEB-DL DDP5 1 H 264-NTb 33 2
The Rookie S06E09 720p HDTV x264-SYNCOPY 43 3
The Rookie S06E09 480p x264-mSD 24 1

The Rookie S06E09 - The Squeeze

Summary:

Officer Nolan and Celina take on a special case; meanwhile, Monica enlists help to identify her attackers. Elsewhere, Lopez and Harper discover a connection to the trail of crimes.



The Rookie S06E09 The Squeeze 1080p AMZN WEB-DL DDP5 1 H 264-FLUX EZTV
The Rookie S6E9 Screenshot


General
Unique ID: 16170732777302228408568479421619244334 (0xC2A5EAE59402E0446E94035C79C0D2E)
Complete name: The Rookie S06E09 The Squeeze 1080p AMZN WEB-DL DDP5 1 H 264-FLUX.mkv
Format: Matroska
Format version: Version 4
File size: 3.01 GiB
Duration: 42 min 57 s
Overall bit rate: 10.0 Mb/s
Frame rate: 23.976 FPS
Writing application: mkvmerge v83.0 ('Circle Of Friends') 64-bit
Writing library: libebml v1.4.5 + libmatroska v1.7.1

Video
ID: 1
Format: AVC
Format/Info: Advanced Video Codec
Format profile: High@L4
Format settings: CABAC / 4 Ref Frames
Format settings, CABAC: Yes
Format settings, Reference frames: 4 frames
Codec ID: V_MPEG4/ISO/AVC
Duration: 42 min 57 s
Bit rate mode: Constant
Bit rate: 9 377 kb/s
Nominal bit rate: 10 000 kb/s
Width: 1 920 pixels
Height: 1 080 pixels
Display aspect ratio: 16:9
Frame rate mode: Constant
Frame rate: 23.976 (24000/1001) FPS
Color space: YUV
Chroma subsampling: 4:2:0
Bit depth: 8 bits
Scan type: Progressive
Bits/(Pixel*Frame): 0.189
Stream size: 2.81 GiB (94%)
Language: English (US)
Default: Yes
Forced: No
Color range: Limited
Color primaries: BT.709
Transfer characteristics: BT.709
Matrix coefficients: BT.709

Audio
ID: 2
Format: E-AC-3
Format/Info: Enhanced AC-3
Commercial name: Dolby Digital Plus
Codec ID: A_EAC3
Duration: 42 min 57 s
Bit rate mode: Constant
Bit rate: 640 kb/s
Channel(s): 6 channels
Channel layout: L R C LFE Ls Rs
Sampling rate: 48.0 kHz
Frame rate: 31.250 FPS (1536 SPF)
Compression mode: Lossy
Stream size: 197 MiB (6%)
Language: English
Service kind: Complete Main
Default: Yes
Forced: No

Text #1
ID: 3
Format: UTF-8
Codec ID: S_TEXT/UTF8
Codec ID/Info: UTF-8 Plain Text
Duration: 42 min 51 s
Bit rate: 106 b/s
Frame rate: 0.393 FPS
Count of elements: 1011
Stream size: 33.3 KiB (0%)
Language: English (US)
Default: No
Forced: No

Text #2
ID: 4
Format: UTF-8
Codec ID: S_TEXT/UTF8
Codec ID/Info: UTF-8 Plain Text
Duration: 42 min 51 s
Bit rate: 110 b/s
Frame rate: 0.419 FPS
Count of elements: 1078
Stream size: 34.5 KiB (0%)
Title: SDH
Language: English (US)
Default: No
Forced: No

Menu
00:00:00.000: en:Scene 1
00:00:02.000: en:Recap
00:01:00.000: en:Scene 2
00:42:18.000: en:End Credits

ssl  EZTV RSS EZTV Status | EZTV API | DMCA: [email protected]