eztv.wf | eztvstatus.org
Search title:  
TV Packs only
 

Reblooming Blue S01E12 2024 1080p WEB-DL H264 AAC-HHWEB EZTV

Episode Breakdown
Ling yi zhong lan
Ling yi zhong lan TV Show S01E12

Season: 1
Episode: 12
Air Date: 14 May, 2024
Download Links
     Torrent Download     Magnet Download
     Anonymous Download
Added 1 month ago by eztv (verified).
Tracker Statistics
Seeds: 2
Peers: 0
Stats generated @ 04:56 on 22nd Jun 2024
Torrent Info
Torrent File: Reblooming.Blue.S01E12.2024.1080p.WEB-DL.H264.AAC-HHWEB[EZTVx.to].mp4
Torrent Hash: 86452940F0BA122B03E70A086F433AAB2D795272
Filesize: 641 MB
Released: 15th May 2024

File Format: MP4 (MPEG-4)
Resolution: 1920x1080 px
Aspect Ratio: 16:9

Ling yi zhong lan S01E12 - Episode 12

Summary:


Reblooming Blue S01E12 2024 1080p WEB-DL H264 AAC-HHWEB EZTV
Ling yi zhong lan S1E12 Screenshot


General
Complete name: Reblooming.Blue.S01E12.2024.1080p.WEB-DL.H264.AAC-HHWEB.mp4
Format: MPEG-4
Format profile: Base Media
Codec ID: isom (isom/iso2/avc1/mp41)
File size: 641 MiB
Duration: 46 min 58 s
Overall bit rate mode: Variable
Overall bit rate: 1 908 kb/s
Frame rate: 25.000 FPS
Recorded date: 2024-05-14 19:56:16.9734938+08:00
Writing application: Lavf60.10.100

Video
ID: 1
Format: AVC
Format/Info: Advanced Video Codec
Format profile: High@L4
Format settings: CABAC / 4 Ref Frames
Format settings, CABAC: Yes
Format settings, Reference frames: 4 frames
Codec ID: avc1
Codec ID/Info: Advanced Video Coding
Duration: 46 min 58 s
Bit rate: 1 712 kb/s
Width: 1 920 pixels
Height: 816 pixels
Display aspect ratio: 2.35:1
Frame rate mode: Constant
Frame rate: 25.000 FPS
Color space: YUV
Chroma subsampling: 4:2:0
Bit depth: 8 bits
Scan type: Progressive
Bits/(Pixel*Frame): 0.044
Stream size: 575 MiB (90%)
Writing library: 211111.mgtv.com
Color range: Limited
Color primaries: BT.709
Transfer characteristics: BT.709
Matrix coefficients: BT.709
Codec configuration box: avcC

Audio
ID: 2
Format: AAC LC
Format/Info: Advanced Audio Codec Low Complexity
Codec ID: mp4a-40-2
Duration: 46 min 58 s
Bit rate mode: Variable
Bit rate: 192 kb/s
Channel(s): 2 channels
Channel layout: L R
Sampling rate: 44.1 kHz
Frame rate: 43.066 FPS (1024 SPF)
Compression mode: Lossy
Stream size: 63.7 MiB (10%)
Default: Yes
Alternate group: 1
ssl  EZTV RSS EZTV Status | EZTV API | DMCA: [email protected]