eztv.wf | eztvstatus.org
Search title:  
TV Packs only
 

Pointless S31E30 720p WEB-DL AAC2 0 H 264-NTb EZTV

Episode Breakdown
Pointless
Pointless TV Show S31E30

Season: 31
Episode: 30
Air Date: 14 May, 2024
Download Links
     Torrent Download     Magnet Download
     Anonymous Download
Added 11 days ago by eztv (verified).
Tracker Statistics
Seeds: 4
Peers: 0
Stats generated @ 14:22 on 27th May 2024
Torrent Info
Torrent File: Pointless.S31E30.720p.WEB-DL.AAC2.0.H.264-NTb[EZTVx.to].mkv
Torrent Hash: E3592DBB4CF98AFDC0E85496AE4A7095BE11F8A2
Filesize: 1.58 GB
Released: 15th May 2024

File Format: MKV (Matroska)
Resolution: 1280x720 px
Aspect Ratio: 16:9

Pointless S31E30 - Episode 30

Summary:

The brainy quiz returns - but this time host Alexander Armstrong is joined by co-host Gabby Logan. As always, contestants try to score as few points as possible by plumbing the depths of their general knowledge to come up with the answers no-one else could think of.



Pointless S31E30 720p WEB-DL AAC2 0 H 264-NTb EZTV
Pointless S31E30 Screenshot


General
Unique ID: 48056560963757955760737293184347069014 (0x24275B62F059394D74CD9822E912DA56)
Complete name: Pointless.S31E30.720p.WEB-DL.AAC2.0.H.264-NTb.mkv
Format: Matroska
Format version: Version 4
File size: 1.58 GiB
Duration: 43 min 36 s
Overall bit rate mode: Variable
Overall bit rate: 5 193 kb/s
Frame rate: 50.000 FPS
Movie name: Episode 30
Encoded date: 2024-05-15 17:46:28 UTC
Writing application: mkvmerge v81.0 ('Milliontown') 64-bit
Writing library: libebml v1.4.4 + libmatroska v1.7.1
Cover: Yes
Comment: Contestants score points by coming up with the answers no-one else could think of
Attachments: cover.jpg

Video
ID: 1
Format: AVC
Format/Info: Advanced Video Codec
Format profile: [email protected]
Format settings: CABAC / 4 Ref Frames
Format settings, CABAC: Yes
Format settings, Reference frames: 4 frames
Codec ID: V_MPEG4/ISO/AVC
Duration: 43 min 36 s
Bit rate mode: Variable
Bit rate: 5 060 kb/s
Maximum bit rate: 7 605 kb/s
Width: 1 280 pixels
Height: 720 pixels
Display aspect ratio: 16:9
Frame rate mode: Constant
Frame rate: 50.000 FPS
Color space: YUV
Chroma subsampling: 4:2:0
Bit depth: 8 bits
Scan type: Progressive
Bits/(Pixel*Frame): 0.110
Stream size: 1.54 GiB (97%)
Language: English
Default: Yes
Forced: No
Color range: Limited
Color primaries: BT.709
Transfer characteristics: BT.709
Matrix coefficients: BT.709

Audio
ID: 2
Format: AAC LC
Format/Info: Advanced Audio Codec Low Complexity
Codec ID: A_AAC-2
Duration: 43 min 36 s
Bit rate: 128 kb/s
Channel(s): 2 channels
Channel layout: L R
Sampling rate: 48.0 kHz
Frame rate: 46.875 FPS (1024 SPF)
Compression mode: Lossy
Stream size: 39.9 MiB (2%)
Language: English
Default: Yes
Forced: No
ssl  EZTV RSS EZTV Status | EZTV API | DMCA: [email protected]