eztv.wf | eztvstatus.org
Search title:  
TV Packs only
 

Franklin 2024 S01E08 720p x264-FENiX EZTV

Episode Breakdown
Franklin
Franklin TV Show S01E08

Season: 1
Episode: 8
Air Date: 17 May, 2024
Download Links
     Torrent Download     Magnet Download
     Anonymous Download
Added 2 months ago by eztv (verified).
Tracker Statistics
Seeds: 8
Peers: 1
Stats generated @ 13:43 on 19th Jul 2024
Torrent Info
Torrent File: Franklin 2024 S01E08 720p x264-FENiX[EZTVx.to].mkv
Torrent Hash: 017E07096AEE276841BBD2BEFE82E4C29820309A
Filesize: 660 MB
Released: 17th May 2024

File Format: MKV (Matroska)
Resolution: 1280x720 px
Aspect Ratio: 16:9
Alternate Releases S L
Franklin 2024 S01E08 1080p HEVC x265-MeGusta 14 1
Franklin 2024 S01E08 1080p WEB H264-SuccessfulCrab 4 2
Franklin 2024 S01E08 WEBRip x264-XEN0N 7 0
Franklin 2024 S01E08 Think of Three Things 1080p ATVP WEB-DL DDP5 1 Atmos H 264-FLUX 4 1
Franklin 2024 S01E08 XviD-AFG 8 4
Franklin 2024 S01E08 Think of Three Things 720p ATVP WEB-DL DDP5 1 Atmos H 264-FLUX 3 1
Franklin 2024 S01E08 720p x265-T0PAZ 5 1

Franklin S01E08 - Think of Three Things

Summary:

Series finale. The future of the United States is decided by six men in a room. Franklin and Temple face a changed world.



Franklin 2024 S01E08 720p x264-FENiX EZTV
Franklin S1E8 Screenshot


General
Unique ID: 103733940008720368140548103414663790093 (0x4E0A6E1D142856CF7EF5994773E6BE0D)
Complete name: Franklin 2024 S01E08 720p x264-FENiX.mkv
Format: Matroska
Format version: Version 4
File size: 660 MiB
Duration: 1 h 4 min
Overall bit rate: 1 437 kb/s
Frame rate: 23.976 FPS
Movie name: Franklin.2024.S01E08
Writing application: Lavf60.16.100
Writing library: Lavf60.16.100
Comment: FENiX-Fri-17-May-2024,02:37:48,720p,22,fast,N,9718971,1918,872,2.2
ErrorDetectionType: Per level 1

Video
ID: 1
Format: AVC
Format/Info: Advanced Video Codec
Format profile: [email protected]
Format settings: CABAC / 4 Ref Frames
Format settings, CABAC: Yes
Format settings, Reference frames: 4 frames
Codec ID: V_MPEG4/ISO/AVC
Duration: 1 h 4 min
Bit rate: 960 kb/s
Width: 1 280 pixels
Height: 582 pixels
Display aspect ratio: 2.2:1
Frame rate mode: Constant
Frame rate: 23.976 (24000/1001) FPS
Color space: YUV
Chroma subsampling: 4:2:0
Bit depth: 8 bits
Scan type: Progressive
Bits/(Pixel*Frame): 0.054
Stream size: 441 MiB (67%)
Writing library: x264 core 164
Encoding settings: cabac=1 / ref=2 / deblock=1:0:0 / analyse=0x3:0x113 / me=hex / subme=6 / psy=1 / psy_rd=1.00:0.00 / mixed_ref=1 / me_range=16 / chroma_me=1 / trellis=1 / 8x8dct=1 / cqm=0 / deadzone=21,11 / fast_pskip=1 / chroma_qp_offset=-2 / threads=18 / lookahead_threads=3 / sliced_threads=0 / nr=0 / decimate=1 / interlaced=0 / bluray_compat=0 / constrained_intra=0 / bframes=3 / b_pyramid=2 / b_adapt=1 / b_bias=0 / direct=1 / weightb=1 / open_gop=0 / weightp=1 / keyint=250 / keyint_min=23 / scenecut=40 / intra_refresh=0 / rc_lookahead=30 / rc=crf / mbtree=1 / crf=22.0 / qcomp=0.60 / qpmin=0 / qpmax=69 / qpstep=4 / ip_ratio=1.40 / aq=1:1.00
Default: Yes
Forced: No
Color range: Limited
Color primaries: BT.709
Transfer characteristics: BT.709
Matrix coefficients: BT.709

Audio
ID: 2
Format: AC-3
Format/Info: Audio Coding 3
Commercial name: Dolby Digital
Codec ID: A_AC3
Duration: 1 h 4 min
Bit rate mode: Constant
Bit rate: 448 kb/s
Channel(s): 6 channels
Channel layout: L R C LFE Ls Rs
Sampling rate: 48.0 kHz
Frame rate: 31.250 FPS (1536 SPF)
Bit depth: 32 bits
Compression mode: Lossy
Stream size: 206 MiB (31%)
Writing library: Lavc60.31.102 ac3
Language: English
Service kind: Complete Main
Default: Yes
Forced: No

Text #1
ID: 3
Format: UTF-8
Codec ID: S_TEXT/UTF8
Codec ID/Info: UTF-8 Plain Text
Duration: 1 h 0 min
Language: English
Default: No
Forced: Yes

Text #2
ID: 4
Format: UTF-8
Codec ID: S_TEXT/UTF8
Codec ID/Info: UTF-8 Plain Text
Duration: 57 min 31 s
Language: English
Default: Yes
Forced: Yes
ssl  EZTV RSS EZTV Status | EZTV API | DMCA: [email protected]