eztv.wf | eztvstatus.org
Search title:  
TV Packs only
 

Franklin 2024 S01E07 Begin by Creeping 720p ATVP WEB-DL DDP5 1 Atmos H 264-FLUX EZTV

Episode Breakdown
Franklin
Franklin TV Show S01E07

Season: 1
Episode: 7
Air Date: 10 May, 2024
Download Links
     Torrent Download     Magnet Download
     Anonymous Download
Added 1 month ago by eztv (verified).
Tracker Statistics
Seeds: 8
Peers: 2
Stats generated @ 04:08 on 18th Jun 2024
Torrent Info
Torrent File: Franklin 2024 S01E07 Begin by Creeping 720p ATVP WEB-DL DDP5 1 Atmos H 264-FLUX[EZTVx.to].mkv
Torrent Hash: 3D0854A6393E0F24158DD9B60EA009194CD2BF58
Filesize: 1.81 GB
Released: 17th May 2024

File Format: MKV (Matroska)
Resolution: 1280x720 px
Aspect Ratio: 16:9
Alternate Releases S L
Franklin 2024 S01E07 1080p WEB H264-SuccessfulCrab 30 4
Franklin 2024 S01E07 1080p HEVC x265-MeGusta 22 8
Franklin 2024 S01E07 720p x264-FENiX 6 1
Franklin 2024 S01E07 XviD-AFG 7 3
Franklin 2024 S01E07 1080p x265-ELiTE 6 2
Franklin 2024 S01E07 Begin by Creeping 1080p ATVP WEB-DL DDP5 1 Atmos H 264-FLUX 6 4
Franklin 2024 S01E07 Begin by Creeping 1080p WEBRip 10Bit 1080p DDP5 1 Atmos HEVC-d3g 3 0

Franklin S01E07 - Begin by Creeping

Summary:

After victory at Yorktown, the Americans and the French plot against each other for the upper hand. Franklin is laid low at a crucial moment.



Franklin 2024 S01E07 Begin by Creeping 720p ATVP WEB-DL DDP5 1 Atmos H 264-FLUX EZTV
Franklin S1E7 Screenshot


General
Unique ID: 29312995076092722187793408411162869522 (0x160D7A3D49964313A4DCB3F9AE777F12)
Complete name: Franklin 2024 S01E07 Begin by Creeping 720p ATVP WEB-DL DDP5 1 Atmos H 264-FLUX.mkv
Format: Matroska
Format version: Version 4
File size: 1.81 GiB
Duration: 55 min 29 s
Overall bit rate: 4 660 kb/s
Frame rate: 23.976 FPS
Writing application: mkvmerge v79.0 ('Funeral Pyres') 64-bit
Writing library: libebml v1.4.4 + libmatroska v1.7.1

Video
ID: 1
Format: AVC
Format/Info: Advanced Video Codec
Format profile: [email protected]
Format settings: CABAC / 5 Ref Frames
Format settings, CABAC: Yes
Format settings, Reference frames: 5 frames
Codec ID: V_MPEG4/ISO/AVC
Duration: 55 min 29 s
Bit rate: 3 885 kb/s
Width: 1 422 pixels
Height: 646 pixels
Display aspect ratio: 2.2:1
Frame rate mode: Constant
Frame rate: 23.976 (24000/1001) FPS
Color space: YUV
Chroma subsampling: 4:2:0
Bit depth: 8 bits
Scan type: Progressive
Bits/(Pixel*Frame): 0.176
Stream size: 1.51 GiB (83%)
Language: English
Default: Yes
Forced: No
Color range: Limited
Color primaries: BT.709
Transfer characteristics: BT.709
Matrix coefficients: BT.709

Audio
ID: 2
Format: E-AC-3 JOC
Format/Info: Enhanced AC-3 with Joint Object Coding
Commercial name: Dolby Digital Plus with Dolby Atmos
Codec ID: A_EAC3
Duration: 55 min 29 s
Bit rate mode: Constant
Bit rate: 768 kb/s
Channel(s): 6 channels
Channel layout: L R C LFE Ls Rs
Sampling rate: 48.0 kHz
Frame rate: 31.250 FPS (1536 SPF)
Compression mode: Lossy
Stream size: 305 MiB (16%)
Language: English
Service kind: Complete Main
Default: Yes
Forced: No
Complexity index: 16
Number of dynamic objects: 15
Bed channel count: 1 channel
Bed channel configuration: LFE

Text #1
ID: 3
Format: UTF-8
Codec ID: S_TEXT/UTF8
Codec ID/Info: UTF-8 Plain Text
Duration: 46 min 27 s
Bit rate: 16 b/s
Frame rate: 0.069 FPS
Count of elements: 192
Stream size: 5.56 KiB (0%)
Title: Forced
Language: English
Default: Yes
Forced: Yes

Text #2
ID: 4
Format: UTF-8
Codec ID: S_TEXT/UTF8
Codec ID/Info: UTF-8 Plain Text
Duration: 52 min 46 s
Bit rate: 53 b/s
Frame rate: 0.199 FPS
Count of elements: 631
Stream size: 20.7 KiB (0%)
Language: English
Default: No
Forced: No

Text #3
ID: 5
Format: UTF-8
Codec ID: S_TEXT/UTF8
Codec ID/Info: UTF-8 Plain Text
Duration: 52 min 56 s
Bit rate: 61 b/s
Frame rate: 0.234 FPS
Count of elements: 743
Stream size: 24.0 KiB (0%)
Title: SDH
Language: English
Default: No
Forced: No

Text #4
ID: 6
Format: UTF-8
Codec ID: S_TEXT/UTF8
Codec ID/Info: UTF-8 Plain Text
Duration: 52 min 56 s
Bit rate: 47 b/s
Frame rate: 0.189 FPS
Count of elements: 601
Stream size: 18.4 KiB (0%)
Title: SDH
Language: English
Default: No
Forced: No

Text #5
ID: 7
Format: UTF-8
Codec ID: S_TEXT/UTF8
Codec ID/Info: UTF-8 Plain Text
Duration: 55 min 6 s
Bit rate: 75 b/s
Frame rate: 0.193 FPS
Count of elements: 638
Stream size: 30.6 KiB (0%)
Language: Arabic
Default: No
Forced: No

Text #6
ID: 8
Format: UTF-8
Codec ID: S_TEXT/UTF8
Codec ID/Info: UTF-8 Plain Text
Duration: 55 min 6 s
Bit rate: 80 b/s
Frame rate: 0.156 FPS
Count of elements: 516
Stream size: 32.6 KiB (0%)
Language: Bulgarian
Default: No
Forced: No

Text #7
ID: 9
Format: UTF-8
Codec ID: S_TEXT/UTF8
Codec ID/Info: UTF-8 Plain Text
Duration: 55 min 6 s
Bit rate: 47 b/s
Frame rate: 0.193 FPS
Count of elements: 639
Stream size: 19.0 KiB (0%)
Title: Simplified
Language: Chinese (Simplified)
Default: No
Forced: No

Text #8
ID: 10
Format: UTF-8
Codec ID: S_TEXT/UTF8
Codec ID/Info: UTF-8 Plain Text
Duration: 55 min 6 s
Bit rate: 45 b/s
Frame rate: 0.194 FPS
Count of elements: 640
Stream size: 18.5 KiB (0%)
Title: Traditional
Language: Chinese (Traditional)
Default: No
Forced: No

Text #9
ID: 11
Format: UTF-8
Codec ID: S_TEXT/UTF8
Codec ID/Info: UTF-8 Plain Text
Duration: 55 min 6 s
Bit rate: 49 b/s
Frame rate: 0.188 FPS
Count of elements: 622
Stream size: 20.1 KiB (0%)
Language: Czech
Default: No
Forced: No

Text #10
ID: 12
Format: UTF-8
Codec ID: S_TEXT/UTF8
Codec ID/Info: UTF-8 Plain Text
Duration: 55 min 6 s
Bit rate: 52 b/s
Frame rate: 0.167 FPS
Count of elements: 552
Stream size: 21.3 KiB (0%)
Language: Danish
Default: No
Forced: No

Text #11
ID: 13
Format: UTF-8
Codec ID: S_TEXT/UTF8
Codec ID/Info: UTF-8 Plain Text
Duration: 55 min 6 s
Bit rate: 52 b/s
Frame rate: 0.180 FPS
Count of elements: 594
Stream size: 21.3 KiB (0%)
Language: German
Default: No
Forced: No

Text #12
ID: 14
Format: UTF-8
Codec ID: S_TEXT/UTF8
Codec ID/Info: UTF-8 Plain Text
Duration: 55 min 6 s
Bit rate: 90 b/s
Frame rate: 0.187 FPS
Count of elements: 618
Stream size: 36.5 KiB (0%)
Language: Greek
Default: No
Forced: No

Text #13
ID: 15
Format: UTF-8
Codec ID: S_TEXT/UTF8
Codec ID/Info: UTF-8 Plain Text
Duration: 55 min 6 s
Bit rate: 48 b/s
Frame rate: 0.191 FPS
Count of elements: 632
Stream size: 19.7 KiB (0%)
Title: Latin American
Language: Spanish (Latin America)
Default: No
Forced: No

Text #14
ID: 16
Format: UTF-8
Codec ID: S_TEXT/UTF8
Codec ID/Info: UTF-8 Plain Text
Duration: 55 min 6 s
Bit rate: 49 b/s
Frame rate: 0.187 FPS
Count of elements: 617
Stream size: 20.0 KiB (0%)
Language: Spanish (ES)
Default: No
Forced: No

Text #15
ID: 17
Format: UTF-8
Codec ID: S_TEXT/UTF8
Codec ID/Info: UTF-8 Plain Text
Duration: 55 min 6 s
Bit rate: 50 b/s
Frame rate: 0.191 FPS
Count of elements: 630
Stream size: 20.4 KiB (0%)
Language: Estonian
Default: No
Forced: No

Text #16
ID: 18
Format: UTF-8
Codec ID: S_TEXT/UTF8
Codec ID/Info: UTF-8 Plain Text
Duration: 55 min 6 s
Bit rate: 49 b/s
Frame rate: 0.192 FPS
Count of elements: 635
Stream size: 19.9 KiB (0%)
Language: Finnish
Default: No
Forced: No

Text #17
ID: 19
Format: UTF-8
Codec ID: S_TEXT/UTF8
Codec ID/Info: UTF-8 Plain Text
Duration: 53 min 23 s
Bit rate: 56 b/s
Frame rate: 0.216 FPS
Count of elements: 691
Stream size: 22.2 KiB (0%)
Title: Canadian
Language: French (CA)
Default: No
Forced: No

Text #18
ID: 20
Format: UTF-8
Codec ID: S_TEXT/UTF8
Codec ID/Info: UTF-8 Plain Text
Duration: 53 min 23 s
Bit rate: 56 b/s
Frame rate: 0.216 FPS
Count of elements: 691
Stream size: 22.2 KiB (0%)
Language: French (FR)
Default: No
Forced: No

Text #19
ID: 21
Format: UTF-8
Codec ID: S_TEXT/UTF8
Codec ID/Info: UTF-8 Plain Text
Duration: 55 min 6 s
Bit rate: 74 b/s
Frame rate: 0.193 FPS
Count of elements: 639
Stream size: 30.0 KiB (0%)
Language: Hebrew
Default: No
Forced: No

Text #20
ID: 22
Format: UTF-8
Codec ID: S_TEXT/UTF8
Codec ID/Info: UTF-8 Plain Text
Duration: 55 min 6 s
Bit rate: 141 b/s
Frame rate: 0.194 FPS
Count of elements: 640
Stream size: 57.1 KiB (0%)
Language: Hindi
Default: No
Forced: No

Text #21
ID: 23
Format: UTF-8
Codec ID: S_TEXT/UTF8
Codec ID/Info: UTF-8 Plain Text
Duration: 55 min 6 s
Bit rate: 54 b/s
Frame rate: 0.192 FPS
Count of elements: 636
Stream size: 22.2 KiB (0%)
Language: Hungarian
Default: No
Forced: No

Text #22
ID: 24
Format: UTF-8
Codec ID: S_TEXT/UTF8
Codec ID/Info: UTF-8 Plain Text
Duration: 55 min 6 s
Bit rate: 53 b/s
Frame rate: 0.193 FPS
Count of elements: 637
Stream size: 21.6 KiB (0%)
Language: Indonesian
Default: No
Forced: No

Text #23
ID: 25
Format: UTF-8
Codec ID: S_TEXT/UTF8
Codec ID/Info: UTF-8 Plain Text
Duration: 55 min 6 s
Bit rate: 51 b/s
Frame rate: 0.192 FPS
Count of elements: 636
Stream size: 21.0 KiB (0%)
Language: Italian
Default: No
Forced: No

Text #24
ID: 26
Format: UTF-8
Codec ID: S_TEXT/UTF8
Codec ID/Info: UTF-8 Plain Text
Duration: 55 min 6 s
Bit rate: 46 b/s
Frame rate: 0.200 FPS
Count of elements: 661
Stream size: 18.8 KiB (0%)
Language: Japanese
Default: No
Forced: No

Text #25
ID: 27
Format: UTF-8
Codec ID: S_TEXT/UTF8
Codec ID/Info: UTF-8 Plain Text
Duration: 55 min 6 s
Bit rate: 54 b/s
Frame rate: 0.193 FPS
Count of elements: 639
Stream size: 21.9 KiB (0%)
Language: Korean
Default: No
Forced: No

Text #26
ID: 28
Format: UTF-8
Codec ID: S_TEXT/UTF8
Codec ID/Info: UTF-8 Plain Text
Duration: 55 min 6 s
Bit rate: 52 b/s
Frame rate: 0.193 FPS
Count of elements: 639
Stream size: 21.3 KiB (0%)
Language: Lithuanian
Default: No
Forced: No

Text #27
ID: 29
Format: UTF-8
Codec ID: S_TEXT/UTF8
Codec ID/Info: UTF-8 Plain Text
Duration: 55 min 6 s
Bit rate: 53 b/s
Frame rate: 0.192 FPS
Count of elements: 636
Stream size: 21.5 KiB (0%)
Language: Latvian
Default: No
Forced: No

Text #28
ID: 30
Format: UTF-8
Codec ID: S_TEXT/UTF8
Codec ID/Info: UTF-8 Plain Text
Duration: 55 min 6 s
Bit rate: 50 b/s
Frame rate: 0.193 FPS
Count of elements: 638
Stream size: 20.2 KiB (0%)
Language: Malay
Default: No
Forced: No

Text #29
ID: 31
Format: UTF-8
Codec ID: S_TEXT/UTF8
Codec ID/Info: UTF-8 Plain Text
Duration: 55 min 6 s
Bit rate: 49 b/s
Frame rate: 0.168 FPS
Count of elements: 557
Stream size: 19.9 KiB (0%)
Language: Dutch
Default: No
Forced: No

Text #30
ID: 32
Format: UTF-8
Codec ID: S_TEXT/UTF8
Codec ID/Info: UTF-8 Plain Text
Duration: 55 min 6 s
Bit rate: 49 b/s
Frame rate: 0.162 FPS
Count of elements: 534
Stream size: 19.9 KiB (0%)
Language: Norwegian
Default: No
Forced: No

Text #31
ID: 33
Format: UTF-8
Codec ID: S_TEXT/UTF8
Codec ID/Info: UTF-8 Plain Text
Duration: 55 min 6 s
Bit rate: 52 b/s
Frame rate: 0.192 FPS
Count of elements: 635
Stream size: 21.2 KiB (0%)
Language: Polish
Default: No
Forced: No

Text #32
ID: 34
Format: UTF-8
Codec ID: S_TEXT/UTF8
Codec ID/Info: UTF-8 Plain Text
Duration: 55 min 6 s
Bit rate: 52 b/s
Frame rate: 0.193 FPS
Count of elements: 637
Stream size: 21.2 KiB (0%)
Language: Portuguese
Default: No
Forced: No

Text #33
ID: 35
Format: UTF-8
Codec ID: S_TEXT/UTF8
Codec ID/Info: UTF-8 Plain Text
Duration: 55 min 6 s
Bit rate: 49 b/s
Frame rate: 0.184 FPS
Count of elements: 608
Stream size: 20.1 KiB (0%)
Title: Brazilian
Language: Portuguese (BR)
Default: No
Forced: No

Text #34
ID: 36
Format: UTF-8
Codec ID: S_TEXT/UTF8
Codec ID/Info: UTF-8 Plain Text
Duration: 55 min 6 s
Bit rate: 80 b/s
Frame rate: 0.185 FPS
Count of elements: 613
Stream size: 32.7 KiB (0%)
Language: Russian
Default: No
Forced: No

Text #35
ID: 37
Format: UTF-8
Codec ID: S_TEXT/UTF8
Codec ID/Info: UTF-8 Plain Text
Duration: 55 min 6 s
Bit rate: 48 b/s
Frame rate: 0.192 FPS
Count of elements: 634
Stream size: 19.4 KiB (0%)
Language: Slovak
Default: No
Forced: No

Text #36
ID: 38
Format: UTF-8
Codec ID: S_TEXT/UTF8
Codec ID/Info: UTF-8 Plain Text
Duration: 55 min 6 s
Bit rate: 44 b/s
Frame rate: 0.168 FPS
Count of elements: 557
Stream size: 17.9 KiB (0%)
Language: Slovenian
Default: No
Forced: No

Text #37
ID: 39
Format: UTF-8
Codec ID: S_TEXT/UTF8
Codec ID/Info: UTF-8 Plain Text
Duration: 55 min 6 s
Bit rate: 53 b/s
Frame rate: 0.187 FPS
Count of elements: 618
Stream size: 21.5 KiB (0%)
Language: Swedish
Default: No
Forced: No

Text #38
ID: 40
Format: UTF-8
Codec ID: S_TEXT/UTF8
Codec ID/Info: UTF-8 Plain Text
Duration: 55 min 6 s
Bit rate: 184 b/s
Frame rate: 0.193 FPS
Count of elements: 639
Stream size: 74.5 KiB (0%)
Language: Tamil
Default: No
Forced: No

Text #39
ID: 41
Format: UTF-8
Codec ID: S_TEXT/UTF8
Codec ID/Info: UTF-8 Plain Text
Duration: 55 min 6 s
Bit rate: 158 b/s
Frame rate: 0.193 FPS
Count of elements: 639
Stream size: 63.8 KiB (0%)
Language: Telugu
Default: No
Forced: No

Text #40
ID: 42
Format: UTF-8
Codec ID: S_TEXT/UTF8
Codec ID/Info: UTF-8 Plain Text
Duration: 55 min 6 s
Bit rate: 127 b/s
Frame rate: 0.193 FPS
Count of elements: 639
Stream size: 51.6 KiB (0%)
Language: Thai
Default: No
Forced: No

Text #41
ID: 43
Format: UTF-8
Codec ID: S_TEXT/UTF8
Codec ID/Info: UTF-8 Plain Text
Duration: 55 min 6 s
Bit rate: 50 b/s
Frame rate: 0.167 FPS
Count of elements: 551
Stream size: 20.3 KiB (0%)
Language: Turkish
Default: No
Forced: No

Text #42
ID: 44
Format: UTF-8
Codec ID: S_TEXT/UTF8
Codec ID/Info: UTF-8 Plain Text
Duration: 55 min 6 s
Bit rate: 84 b/s
Frame rate: 0.194 FPS
Count of elements: 640
Stream size: 34.1 KiB (0%)
Language: Ukrainian
Default: No
Forced: No

Text #43
ID: 45
Format: UTF-8
Codec ID: S_TEXT/UTF8
Codec ID/Info: UTF-8 Plain Text
Duration: 55 min 6 s
Bit rate: 67 b/s
Frame rate: 0.193 FPS
Count of elements: 638
Stream size: 27.2 KiB (0%)
Language: Vietnamese
Default: No
Forced: No

Text #44
ID: 46
Format: UTF-8
Codec ID: S_TEXT/UTF8
Codec ID/Info: UTF-8 Plain Text
Duration: 55 min 6 s
Bit rate: 41 b/s
Frame rate: 0.194 FPS
Count of elements: 640
Stream size: 16.9 KiB (0%)
Title: Traditional
Language: Cantonese (Hant)
Default: No
Forced: No

Menu
00:00:00.000: en:Studio Logo
00:00:08.843: en:Recap
00:00:55.932: en:Scene 01
00:02:58.932: en:Intro
00:04:08.557: en:Scene 02
00:53:23.416: en:Credits
ssl  EZTV RSS EZTV Status | EZTV API | DMCA: [email protected]