eztv.wf | eztvstatus.org
Search title:  
TV Packs only
 

Franklin 2024 S01E04 Small Revenge 720p ATVP WEB-DL DDP5 1 Atmos H 264-FLUX EZTV

Episode Breakdown
Franklin
Franklin TV Show S01E04

Season: 1
Episode: 4
Air Date: 19 April, 2024
Download Links
     Torrent Download     Magnet Download
     Anonymous Download
Added 2 months ago by eztv (verified).
Tracker Statistics
Seeds: 4
Peers: 0
Stats generated @ 15:02 on 19th Jul 2024
Torrent Info
Torrent File: Franklin 2024 S01E04 Small Revenge 720p ATVP WEB-DL DDP5 1 Atmos H 264-FLUX[EZTVx.to].mkv
Torrent Hash: A76430A738C43B62137AD4447C374F732166350C
Filesize: 1.52 GB
Released: 17th May 2024

File Format: MKV (Matroska)
Resolution: 1280x720 px
Aspect Ratio: 16:9
Alternate Releases S L
Franklin 2024 S01E04 1080p WEB H264-SuccessfulCrab 11 2
Franklin 2024 S01E04 1080p HEVC x265-MeGusta 20 1
Franklin 2024 S01E04 XviD-AFG 3 1
Franklin 2024 S01E04 720p x265-T0PAZ 3 0
Franklin 2024 S01E04 1080p x265-ELiTE 5 0
Franklin 2024 S01E04 720p x264-FENiX 1 0
Franklin 2024 S01E04 Small Revenge 1080p ATVP WEB-DL DDP5 1 Atmos H 264-FLUX 5 2

Franklin S01E04 - Small Revenge

Summary:

Franklin pays back an insult—and receives the favor of a king. A new lover catches his eye, and an old rival turns up to thwart him.



Franklin 2024 S01E04 Small Revenge 720p ATVP WEB-DL DDP5 1 Atmos H 264-FLUX EZTV
Franklin S1E4 Screenshot


General
Unique ID: 311408685454067592855267063255543440936 (0xEA4721980404C0273E63D6966335E628)
Complete name: Franklin 2024 S01E04 Small Revenge 720p ATVP WEB-DL DDP5 1 Atmos H 264-FLUX.mkv
Format: Matroska
Format version: Version 4
File size: 1.52 GiB
Duration: 1 h 0 min
Overall bit rate: 3 613 kb/s
Frame rate: 23.976 FPS
Writing application: mkvmerge v83.0 ('Circle Of Friends') 64-bit
Writing library: libebml v1.4.5 + libmatroska v1.7.1

Video
ID: 1
Format: AVC
Format/Info: Advanced Video Codec
Format profile: [email protected]
Format settings: CABAC / 5 Ref Frames
Format settings, CABAC: Yes
Format settings, Reference frames: 5 frames
Codec ID: V_MPEG4/ISO/AVC
Duration: 1 h 0 min
Bit rate: 2 838 kb/s
Width: 1 420 pixels
Height: 646 pixels
Display aspect ratio: 2.2:1
Frame rate mode: Constant
Frame rate: 23.976 (24000/1001) FPS
Color space: YUV
Chroma subsampling: 4:2:0
Bit depth: 8 bits
Scan type: Progressive
Bits/(Pixel*Frame): 0.129
Stream size: 1.20 GiB (79%)
Language: English
Default: Yes
Forced: No
Color range: Limited
Color primaries: BT.709
Transfer characteristics: BT.709
Matrix coefficients: BT.709

Audio
ID: 2
Format: E-AC-3 JOC
Format/Info: Enhanced AC-3 with Joint Object Coding
Commercial name: Dolby Digital Plus with Dolby Atmos
Codec ID: A_EAC3
Duration: 1 h 0 min
Bit rate mode: Constant
Bit rate: 768 kb/s
Channel(s): 6 channels
Channel layout: L R C LFE Ls Rs
Sampling rate: 48.0 kHz
Frame rate: 31.250 FPS (1536 SPF)
Compression mode: Lossy
Stream size: 331 MiB (21%)
Language: English
Service kind: Complete Main
Default: Yes
Forced: No
Complexity index: 16
Number of dynamic objects: 15
Bed channel count: 1 channel
Bed channel configuration: LFE

Text #1
ID: 3
Format: UTF-8
Codec ID: S_TEXT/UTF8
Codec ID/Info: UTF-8 Plain Text
Duration: 50 min 26 s
Bit rate: 18 b/s
Frame rate: 0.068 FPS
Count of elements: 207
Stream size: 6.82 KiB (0%)
Title: Forced
Language: English
Default: Yes
Forced: Yes

Text #2
ID: 4
Format: UTF-8
Codec ID: S_TEXT/UTF8
Codec ID/Info: UTF-8 Plain Text
Duration: 57 min 51 s
Bit rate: 54 b/s
Frame rate: 0.182 FPS
Count of elements: 631
Stream size: 23.3 KiB (0%)
Language: English
Default: No
Forced: No

Text #3
ID: 5
Format: UTF-8
Codec ID: S_TEXT/UTF8
Codec ID/Info: UTF-8 Plain Text
Duration: 57 min 58 s
Bit rate: 64 b/s
Frame rate: 0.222 FPS
Count of elements: 772
Stream size: 27.5 KiB (0%)
Title: SDH
Language: English
Default: No
Forced: No

Text #4
ID: 6
Format: UTF-8
Codec ID: S_TEXT/UTF8
Codec ID/Info: UTF-8 Plain Text
Duration: 57 min 58 s
Bit rate: 48 b/s
Frame rate: 0.178 FPS
Count of elements: 618
Stream size: 20.6 KiB (0%)
Title: SDH
Language: English
Default: No
Forced: No

Text #5
ID: 7
Format: UTF-8
Codec ID: S_TEXT/UTF8
Codec ID/Info: UTF-8 Plain Text
Duration: 57 min 58 s
Bit rate: 48 b/s
Frame rate: 0.178 FPS
Count of elements: 618
Stream size: 20.6 KiB (0%)
Title: SDH
Language: English
Default: No
Forced: No

Text #6
ID: 8
Format: UTF-8
Codec ID: S_TEXT/UTF8
Codec ID/Info: UTF-8 Plain Text
Duration: 59 min 55 s
Bit rate: 77 b/s
Frame rate: 0.177 FPS
Count of elements: 635
Stream size: 34.2 KiB (0%)
Language: Arabic
Default: No
Forced: No

Text #7
ID: 9
Format: UTF-8
Codec ID: S_TEXT/UTF8
Codec ID/Info: UTF-8 Plain Text
Duration: 59 min 55 s
Bit rate: 86 b/s
Frame rate: 0.147 FPS
Count of elements: 530
Stream size: 37.8 KiB (0%)
Language: Bulgarian
Default: No
Forced: No

Text #8
ID: 10
Format: UTF-8
Codec ID: S_TEXT/UTF8
Codec ID/Info: UTF-8 Plain Text
Duration: 59 min 55 s
Bit rate: 47 b/s
Frame rate: 0.177 FPS
Count of elements: 635
Stream size: 20.7 KiB (0%)
Title: Simplified
Language: Chinese (Simplified)
Default: No
Forced: No

Text #9
ID: 11
Format: UTF-8
Codec ID: S_TEXT/UTF8
Codec ID/Info: UTF-8 Plain Text
Duration: 59 min 55 s
Bit rate: 44 b/s
Frame rate: 0.177 FPS
Count of elements: 636
Stream size: 19.7 KiB (0%)
Title: Traditional
Language: Chinese (Traditional)
Default: No
Forced: No

Text #10
ID: 12
Format: UTF-8
Codec ID: S_TEXT/UTF8
Codec ID/Info: UTF-8 Plain Text
Duration: 59 min 55 s
Bit rate: 51 b/s
Frame rate: 0.173 FPS
Count of elements: 623
Stream size: 22.5 KiB (0%)
Language: Czech
Default: No
Forced: No

Text #11
ID: 13
Format: UTF-8
Codec ID: S_TEXT/UTF8
Codec ID/Info: UTF-8 Plain Text
Duration: 59 min 55 s
Bit rate: 54 b/s
Frame rate: 0.171 FPS
Count of elements: 615
Stream size: 23.8 KiB (0%)
Language: Danish
Default: No
Forced: No

Text #12
ID: 14
Format: UTF-8
Codec ID: S_TEXT/UTF8
Codec ID/Info: UTF-8 Plain Text
Duration: 59 min 55 s
Bit rate: 54 b/s
Frame rate: 0.167 FPS
Count of elements: 600
Stream size: 24.1 KiB (0%)
Language: German
Default: No
Forced: No

Text #13
ID: 15
Format: UTF-8
Codec ID: S_TEXT/UTF8
Codec ID/Info: UTF-8 Plain Text
Duration: 59 min 55 s
Bit rate: 96 b/s
Frame rate: 0.174 FPS
Count of elements: 626
Stream size: 42.3 KiB (0%)
Language: Greek
Default: No
Forced: No

Text #14
ID: 16
Format: UTF-8
Codec ID: S_TEXT/UTF8
Codec ID/Info: UTF-8 Plain Text
Duration: 59 min 55 s
Bit rate: 52 b/s
Frame rate: 0.172 FPS
Count of elements: 620
Stream size: 22.9 KiB (0%)
Title: Latin American
Language: Spanish (Latin America)
Default: No
Forced: No

Text #15
ID: 17
Format: UTF-8
Codec ID: S_TEXT/UTF8
Codec ID/Info: UTF-8 Plain Text
Duration: 59 min 55 s
Bit rate: 52 b/s
Frame rate: 0.169 FPS
Count of elements: 609
Stream size: 23.1 KiB (0%)
Language: Spanish (ES)
Default: No
Forced: No

Text #16
ID: 18
Format: UTF-8
Codec ID: S_TEXT/UTF8
Codec ID/Info: UTF-8 Plain Text
Duration: 59 min 55 s
Bit rate: 53 b/s
Frame rate: 0.176 FPS
Count of elements: 632
Stream size: 23.3 KiB (0%)
Language: Estonian
Default: No
Forced: No

Text #17
ID: 19
Format: UTF-8
Codec ID: S_TEXT/UTF8
Codec ID/Info: UTF-8 Plain Text
Duration: 59 min 55 s
Bit rate: 52 b/s
Frame rate: 0.176 FPS
Count of elements: 634
Stream size: 22.8 KiB (0%)
Language: Finnish
Default: No
Forced: No

Text #18
ID: 20
Format: UTF-8
Codec ID: S_TEXT/UTF8
Codec ID/Info: UTF-8 Plain Text
Duration: 59 min 53 s
Bit rate: 58 b/s
Frame rate: 0.213 FPS
Count of elements: 766
Stream size: 25.7 KiB (0%)
Title: Canadian
Language: French (CA)
Default: No
Forced: No

Text #19
ID: 21
Format: UTF-8
Codec ID: S_TEXT/UTF8
Codec ID/Info: UTF-8 Plain Text
Duration: 59 min 53 s
Bit rate: 58 b/s
Frame rate: 0.213 FPS
Count of elements: 766
Stream size: 25.7 KiB (0%)
Language: French (FR)
Default: No
Forced: No

Text #20
ID: 22
Format: UTF-8
Codec ID: S_TEXT/UTF8
Codec ID/Info: UTF-8 Plain Text
Duration: 59 min 55 s
Bit rate: 75 b/s
Frame rate: 0.177 FPS
Count of elements: 637
Stream size: 33.0 KiB (0%)
Language: Hebrew
Default: No
Forced: No

Text #21
ID: 23
Format: UTF-8
Codec ID: S_TEXT/UTF8
Codec ID/Info: UTF-8 Plain Text
Duration: 59 min 55 s
Bit rate: 142 b/s
Frame rate: 0.177 FPS
Count of elements: 637
Stream size: 62.6 KiB (0%)
Language: Hindi
Default: No
Forced: No

Text #22
ID: 24
Format: UTF-8
Codec ID: S_TEXT/UTF8
Codec ID/Info: UTF-8 Plain Text
Duration: 59 min 55 s
Bit rate: 57 b/s
Frame rate: 0.177 FPS
Count of elements: 635
Stream size: 25.2 KiB (0%)
Language: Hungarian
Default: No
Forced: No

Text #23
ID: 25
Format: UTF-8
Codec ID: S_TEXT/UTF8
Codec ID/Info: UTF-8 Plain Text
Duration: 59 min 55 s
Bit rate: 53 b/s
Frame rate: 0.177 FPS
Count of elements: 636
Stream size: 23.3 KiB (0%)
Language: Indonesian
Default: No
Forced: No

Text #24
ID: 26
Format: UTF-8
Codec ID: S_TEXT/UTF8
Codec ID/Info: UTF-8 Plain Text
Duration: 59 min 55 s
Bit rate: 54 b/s
Frame rate: 0.177 FPS
Count of elements: 636
Stream size: 24.0 KiB (0%)
Language: Italian
Default: No
Forced: No

Text #25
ID: 27
Format: UTF-8
Codec ID: S_TEXT/UTF8
Codec ID/Info: UTF-8 Plain Text
Duration: 59 min 55 s
Bit rate: 49 b/s
Frame rate: 0.190 FPS
Count of elements: 682
Stream size: 21.8 KiB (0%)
Language: Japanese
Default: No
Forced: No

Text #26
ID: 28
Format: UTF-8
Codec ID: S_TEXT/UTF8
Codec ID/Info: UTF-8 Plain Text
Duration: 59 min 55 s
Bit rate: 54 b/s
Frame rate: 0.177 FPS
Count of elements: 636
Stream size: 24.0 KiB (0%)
Language: Korean
Default: No
Forced: No

Text #27
ID: 29
Format: UTF-8
Codec ID: S_TEXT/UTF8
Codec ID/Info: UTF-8 Plain Text
Duration: 59 min 55 s
Bit rate: 53 b/s
Frame rate: 0.177 FPS
Count of elements: 636
Stream size: 23.4 KiB (0%)
Language: Lithuanian
Default: No
Forced: No

Text #28
ID: 30
Format: UTF-8
Codec ID: S_TEXT/UTF8
Codec ID/Info: UTF-8 Plain Text
Duration: 59 min 55 s
Bit rate: 54 b/s
Frame rate: 0.176 FPS
Count of elements: 633
Stream size: 24.0 KiB (0%)
Language: Latvian
Default: No
Forced: No

Text #29
ID: 31
Format: UTF-8
Codec ID: S_TEXT/UTF8
Codec ID/Info: UTF-8 Plain Text
Duration: 59 min 55 s
Bit rate: 49 b/s
Frame rate: 0.177 FPS
Count of elements: 636
Stream size: 21.7 KiB (0%)
Language: Malay
Default: No
Forced: No

Text #30
ID: 32
Format: UTF-8
Codec ID: S_TEXT/UTF8
Codec ID/Info: UTF-8 Plain Text
Duration: 59 min 55 s
Bit rate: 51 b/s
Frame rate: 0.157 FPS
Count of elements: 563
Stream size: 22.6 KiB (0%)
Language: Dutch
Default: No
Forced: No

Text #31
ID: 33
Format: UTF-8
Codec ID: S_TEXT/UTF8
Codec ID/Info: UTF-8 Plain Text
Duration: 59 min 55 s
Bit rate: 50 b/s
Frame rate: 0.160 FPS
Count of elements: 576
Stream size: 22.0 KiB (0%)
Language: Norwegian
Default: No
Forced: No

Text #32
ID: 34
Format: UTF-8
Codec ID: S_TEXT/UTF8
Codec ID/Info: UTF-8 Plain Text
Duration: 59 min 55 s
Bit rate: 54 b/s
Frame rate: 0.176 FPS
Count of elements: 633
Stream size: 24.0 KiB (0%)
Language: Polish
Default: No
Forced: No

Text #33
ID: 35
Format: UTF-8
Codec ID: S_TEXT/UTF8
Codec ID/Info: UTF-8 Plain Text
Duration: 59 min 55 s
Bit rate: 55 b/s
Frame rate: 0.177 FPS
Count of elements: 635
Stream size: 24.3 KiB (0%)
Language: Portuguese
Default: No
Forced: No

Text #34
ID: 36
Format: UTF-8
Codec ID: S_TEXT/UTF8
Codec ID/Info: UTF-8 Plain Text
Duration: 59 min 55 s
Bit rate: 52 b/s
Frame rate: 0.171 FPS
Count of elements: 615
Stream size: 23.0 KiB (0%)
Title: Brazilian
Language: Portuguese (BR)
Default: No
Forced: No

Text #35
ID: 37
Format: UTF-8
Codec ID: S_TEXT/UTF8
Codec ID/Info: UTF-8 Plain Text
Duration: 59 min 55 s
Bit rate: 84 b/s
Frame rate: 0.172 FPS
Count of elements: 620
Stream size: 37.1 KiB (0%)
Language: Russian
Default: No
Forced: No

Text #36
ID: 38
Format: UTF-8
Codec ID: S_TEXT/UTF8
Codec ID/Info: UTF-8 Plain Text
Duration: 59 min 55 s
Bit rate: 51 b/s
Frame rate: 0.177 FPS
Count of elements: 635
Stream size: 22.7 KiB (0%)
Language: Slovak
Default: No
Forced: No

Text #37
ID: 39
Format: UTF-8
Codec ID: S_TEXT/UTF8
Codec ID/Info: UTF-8 Plain Text
Duration: 59 min 55 s
Bit rate: 46 b/s
Frame rate: 0.167 FPS
Count of elements: 601
Stream size: 20.3 KiB (0%)
Language: Slovenian
Default: No
Forced: No

Text #38
ID: 40
Format: UTF-8
Codec ID: S_TEXT/UTF8
Codec ID/Info: UTF-8 Plain Text
Duration: 59 min 55 s
Bit rate: 54 b/s
Frame rate: 0.172 FPS
Count of elements: 619
Stream size: 23.8 KiB (0%)
Language: Swedish
Default: No
Forced: No

Text #39
ID: 41
Format: UTF-8
Codec ID: S_TEXT/UTF8
Codec ID/Info: UTF-8 Plain Text
Duration: 59 min 55 s
Bit rate: 180 b/s
Frame rate: 0.177 FPS
Count of elements: 637
Stream size: 79.4 KiB (0%)
Language: Tamil
Default: No
Forced: No

Text #40
ID: 42
Format: UTF-8
Codec ID: S_TEXT/UTF8
Codec ID/Info: UTF-8 Plain Text
Duration: 59 min 55 s
Bit rate: 160 b/s
Frame rate: 0.177 FPS
Count of elements: 637
Stream size: 70.6 KiB (0%)
Language: Telugu
Default: No
Forced: No

Text #41
ID: 43
Format: UTF-8
Codec ID: S_TEXT/UTF8
Codec ID/Info: UTF-8 Plain Text
Duration: 59 min 55 s
Bit rate: 128 b/s
Frame rate: 0.177 FPS
Count of elements: 638
Stream size: 56.2 KiB (0%)
Language: Thai
Default: No
Forced: No

Text #42
ID: 44
Format: UTF-8
Codec ID: S_TEXT/UTF8
Codec ID/Info: UTF-8 Plain Text
Duration: 59 min 55 s
Bit rate: 51 b/s
Frame rate: 0.169 FPS
Count of elements: 608
Stream size: 22.6 KiB (0%)
Language: Turkish
Default: No
Forced: No

Text #43
ID: 45
Format: UTF-8
Codec ID: S_TEXT/UTF8
Codec ID/Info: UTF-8 Plain Text
Duration: 59 min 55 s
Bit rate: 88 b/s
Frame rate: 0.177 FPS
Count of elements: 638
Stream size: 38.6 KiB (0%)
Language: Ukrainian
Default: No
Forced: No

Text #44
ID: 46
Format: UTF-8
Codec ID: S_TEXT/UTF8
Codec ID/Info: UTF-8 Plain Text
Duration: 59 min 55 s
Bit rate: 68 b/s
Frame rate: 0.177 FPS
Count of elements: 636
Stream size: 29.9 KiB (0%)
Language: Vietnamese
Default: No
Forced: No

Text #45
ID: 47
Format: UTF-8
Codec ID: S_TEXT/UTF8
Codec ID/Info: UTF-8 Plain Text
Duration: 59 min 55 s
Bit rate: 42 b/s
Frame rate: 0.177 FPS
Count of elements: 636
Stream size: 18.8 KiB (0%)
Title: Traditional
Language: Cantonese (Hant)
Default: No
Forced: No

Menu
00:00:00.000: en:Studio Logo
00:00:08.843: en:Recap
00:00:55.932: en:Scene 01
00:05:13.057: en:Intro
00:06:22.598: en:Scene 02
00:58:12.791: en:Credits
ssl  EZTV RSS EZTV Status | EZTV API | DMCA: [email protected]