eztv.wf | eztvstatus.org
Search title:  
TV Packs only
 

Franklin 2024 S01E01 Sauce for Prayers 1080p WEBRip 10Bit 1080p DDP5 1 Atmos HEVC-d3g EZTV

Episode Breakdown
Franklin
Franklin TV Show S01E01

Season: 1
Episode: 1
Air Date: 12 April, 2024
Download Links
     Torrent Download     Magnet Download
     Anonymous Download
Added 30 days ago by eztv (verified).
Tracker Statistics
Seeds: 2
Peers: 3
Stats generated @ 05:32 on 18th Jun 2024
Torrent Info
Torrent File: Franklin 2024 S01E01 Sauce for Prayers 1080p WEBRip 10Bit 1080p DDP5 1 Atmos HEVC-d3g[EZTVx.to].mkv
Torrent Hash: 58FB6116E6D410FB6CE7FD2212D43CF4FCD41AB1
Filesize: 2.22 GB
Released: 18th May 2024

File Format: MKV (Matroska)
Resolution: 1920x1080 px
Aspect Ratio: 16:9
Alternate Releases S L
Franklin 2024 S01E01 Sauce for Prayers 720p ATVP WEB-DL DDP5 1 Atmos H 264-FLUX 11 1
Franklin 2024 S01E01 MULTI 1080p WEB H264-HiggsBoson 9 1
Franklin 2024 S01E01 Sauce for Prayers 1080p ATVP WEB-DL DDP5 1 Atmos H 264-FLUX 17 1
Franklin 2024 S01E01 1080p HEVC x265-MeGusta 34 7
Franklin 2024 S01E01 1080p WEB H264-SuccessfulCrab 6 2
Franklin 2024 S01E01 XviD-AFG 11 0
Franklin 2024 S01E01 720p x264-FENiX 8 1

Franklin S01E01 - Sauce for Prayers

Summary:

As the fight for independence teeters on the brink of defeat, Benjamin Franklin and his grandson plunge into a world of intrigue and deception.



Franklin 2024 S01E01 Sauce for Prayers 1080p WEBRip 10Bit 1080p DDP5 1 Atmos HEVC-d3g EZTV
Franklin S1E1 Screenshot


General
Unique ID: 252541359850982096498123624416742389973 (0xBDFDB25BCDFDF5DEB71344934806B8D5)
Complete name: Franklin 2024 S01E01 Sauce for Prayers 1080p WEBRip 10Bit 1080p DDP5 1 Atmos HEVC-d3g.mkv
Format: Matroska
Format version: Version 2
File size: 2.22 GiB
Duration: 59 min 26 s
Overall bit rate: 5 356 kb/s
Frame rate: 23.976 FPS
Movie name: Franklin.2024.S01E01.Sauce.for.Prayers.1080p.WEBRip.10Bit.1080p.DDP5.1.Atmos.HEVC-d3g
Encoded date: 2024-05-17 21:46:12 UTC
Writing application: DVDFab 12.1.1.5
Writing library: libebml v1.4.2 + libmatroska v1.6.3

Video
ID: 1
Format: HEVC
Format/Info: High Efficiency Video Coding
Format profile: Main 10@L4@Main
Codec ID: V_MPEGH/ISO/HEVC
Duration: 59 min 26 s
Bit rate: 4 515 kb/s
Width: 1 920 pixels
Height: 872 pixels
Display aspect ratio: 2.2:1
Frame rate mode: Constant
Frame rate: 23.976 (24000/1001) FPS
Color space: YUV
Chroma subsampling: 4:2:0
Bit depth: 10 bits
Bits/(Pixel*Frame): 0.112
Stream size: 1.87 GiB (84%)
Default: Yes
Forced: No
Color range: Limited
Color primaries: BT.709
Transfer characteristics: BT.709
Matrix coefficients: BT.709

Audio
ID: 2
Format: E-AC-3 JOC
Format/Info: Enhanced AC-3 with Joint Object Coding
Commercial name: Dolby Digital Plus with Dolby Atmos
Codec ID: A_EAC3
Duration: 59 min 26 s
Bit rate mode: Constant
Bit rate: 768 kb/s
Channel(s): 6 channels
Channel layout: L R C LFE Ls Rs
Sampling rate: 48.0 kHz
Frame rate: 31.250 FPS (1536 SPF)
Compression mode: Lossy
Stream size: 326 MiB (14%)
Language: English
Service kind: Complete Main
Default: Yes
Forced: No
Complexity index: 16
Number of dynamic objects: 15
Bed channel count: 1 channel
Bed channel configuration: LFE

Text #1
ID: 3
Format: PGS
Codec ID: S_HDMV/PGS
Codec ID/Info: Picture based subtitle format used on BDs/HD-DVDs
Duration: 46 min 7 s
Bit rate: 12.3 kb/s
Frame rate: 0.174 FPS
Count of elements: 482
Stream size: 4.05 MiB (0%)
Language: English
Default: Yes
Forced: No

Text #2
ID: 4
Format: PGS
Codec ID: S_HDMV/PGS
Codec ID/Info: Picture based subtitle format used on BDs/HD-DVDs
Duration: 56 min 29 s
Bit rate: 35.2 kb/s
Frame rate: 0.472 FPS
Count of elements: 1600
Stream size: 14.2 MiB (1%)
Language: English
Default: No
Forced: No

Text #3
ID: 5
Format: PGS
Codec ID: S_HDMV/PGS
Codec ID/Info: Picture based subtitle format used on BDs/HD-DVDs
Duration: 55 min 9 s
Bit rate: 29.1 kb/s
Frame rate: 0.394 FPS
Count of elements: 1304
Stream size: 11.5 MiB (0%)
Language: English
Default: No
Forced: No
ssl  EZTV RSS EZTV Status | EZTV API | DMCA: [email protected]