eztv.wf | eztvstatus.org
Search title:  
TV Packs only
 

Franklin 2024 S01E07 Begin by Creeping 1080p WEBRip 10Bit 1080p DDP5 1 Atmos HEVC-d3g EZTV

Episode Breakdown
Franklin
Franklin TV Show S01E07

Season: 1
Episode: 7
Air Date: 10 May, 2024
Download Links
     Torrent Download     Magnet Download
     Anonymous Download
Added 2 months ago by eztv (verified).
Tracker Statistics
Seeds: 0
Peers: 1
Stats generated @ 13:54 on 19th Jul 2024
Torrent Info
Torrent File: Franklin 2024 S01E07 Begin by Creeping 1080p WEBRip 10Bit 1080p DDP5 1 Atmos HEVC-d3g[EZTVx.to].mkv
Torrent Hash: 40444615140DD3679F8B34BAE24C20E5D1CBA971
Filesize: 2.05 GB
Released: 18th May 2024

File Format: MKV (Matroska)
Resolution: 1920x1080 px
Aspect Ratio: 16:9
Alternate Releases S L
Franklin 2024 S01E07 1080p WEB H264-SuccessfulCrab 17 1
Franklin 2024 S01E07 1080p HEVC x265-MeGusta 14 6
Franklin 2024 S01E07 720p x264-FENiX 4 1
Franklin 2024 S01E07 XviD-AFG 8 0
Franklin 2024 S01E07 1080p x265-ELiTE 2 1
Franklin 2024 S01E07 Begin by Creeping 1080p ATVP WEB-DL DDP5 1 Atmos H 264-FLUX 5 1
Franklin 2024 S01E07 Begin by Creeping 720p ATVP WEB-DL DDP5 1 Atmos H 264-FLUX 2 0

Franklin S01E07 - Begin by Creeping

Summary:

After victory at Yorktown, the Americans and the French plot against each other for the upper hand. Franklin is laid low at a crucial moment.



Franklin 2024 S01E07 Begin by Creeping 1080p WEBRip 10Bit 1080p DDP5 1 Atmos HEVC-d3g EZTV
Franklin S1E7 Screenshot


General
Unique ID: 199392649232539659420553749213124831012 (0x9601A09C49B723948A2E4634E7E52724)
Complete name: Franklin 2024 S01E07 Begin by Creeping 1080p WEBRip 10Bit 1080p DDP5 1 Atmos HEVC-d3g.mkv
Format: Matroska
Format version: Version 2
File size: 2.05 GiB
Duration: 55 min 29 s
Overall bit rate: 5 295 kb/s
Frame rate: 23.976 FPS
Movie name: Franklin.2024.S01E07.Begin.by.Creeping.1080p.WEBRip.10Bit.1080p.DDP5.1.Atmos.HEVC-d3g
Encoded date: 2024-05-17 22:14:04 UTC
Writing application: DVDFab 12.1.1.5
Writing library: libebml v1.4.2 + libmatroska v1.6.3

Video
ID: 1
Format: HEVC
Format/Info: High Efficiency Video Coding
Format profile: Main 10@L4@Main
Codec ID: V_MPEGH/ISO/HEVC
Duration: 55 min 29 s
Bit rate: 4 458 kb/s
Width: 1 920 pixels
Height: 872 pixels
Display aspect ratio: 2.2:1
Frame rate mode: Constant
Frame rate: 23.976 (24000/1001) FPS
Color space: YUV
Chroma subsampling: 4:2:0
Bit depth: 10 bits
Bits/(Pixel*Frame): 0.111
Stream size: 1.73 GiB (84%)
Default: Yes
Forced: No
Color range: Limited
Color primaries: BT.709
Transfer characteristics: BT.709
Matrix coefficients: BT.709

Audio
ID: 2
Format: E-AC-3 JOC
Format/Info: Enhanced AC-3 with Joint Object Coding
Commercial name: Dolby Digital Plus with Dolby Atmos
Codec ID: A_EAC3
Duration: 55 min 29 s
Bit rate mode: Constant
Bit rate: 768 kb/s
Channel(s): 6 channels
Channel layout: L R C LFE Ls Rs
Sampling rate: 48.0 kHz
Frame rate: 31.250 FPS (1536 SPF)
Compression mode: Lossy
Stream size: 305 MiB (15%)
Language: English
Service kind: Complete Main
Default: Yes
Forced: No
Complexity index: 16
Number of dynamic objects: 15
Bed channel count: 1 channel
Bed channel configuration: LFE

Text #1
ID: 3
Format: PGS
Codec ID: S_HDMV/PGS
Codec ID/Info: Picture based subtitle format used on BDs/HD-DVDs
Duration: 46 min 28 s
Bit rate: 8 908 b/s
Frame rate: 0.138 FPS
Count of elements: 384
Stream size: 2.96 MiB (0%)
Language: English
Default: Yes
Forced: No

Text #2
ID: 4
Format: PGS
Codec ID: S_HDMV/PGS
Codec ID/Info: Picture based subtitle format used on BDs/HD-DVDs
Duration: 52 min 47 s
Bit rate: 28.7 kb/s
Frame rate: 0.398 FPS
Count of elements: 1262
Stream size: 10.8 MiB (0%)
Language: English
Default: No
Forced: No

Text #3
ID: 5
Format: PGS
Codec ID: S_HDMV/PGS
Codec ID/Info: Picture based subtitle format used on BDs/HD-DVDs
Duration: 52 min 57 s
Bit rate: 33.3 kb/s
Frame rate: 0.468 FPS
Count of elements: 1486
Stream size: 12.6 MiB (1%)
Language: English
Default: No
Forced: No
ssl  EZTV RSS EZTV Status | EZTV API | DMCA: [email protected]