eztv.wf | eztvstatus.org
Search title:  
TV Packs only
 

Chief Detective 1958 S01E10 2024 1080p DSNP WEB-DL H264 AAC-ADWeb EZTV

Episode Breakdown
Chief Detective 1958
Chief Detective 1958 TV Show S01E10

Season: 1
Episode: 10
Air Date: 18 May, 2024
Download Links
     Torrent Download     Magnet Download
     Anonymous Download
Added 1 month ago by eztv (verified).
Tracker Statistics
Seeds: 3
Peers: 4
Stats generated @ 05:39 on 22nd Jun 2024
Torrent Info
Torrent File: Chief.Detective.1958.S01E10.2024.1080p.DSNP.WEB-DL.H264.AAC-ADWeb[EZTVx.to].mkv
Torrent Hash: BFA0D03780CCA6F4894586BBEC04FA8F0D34F7E9
Filesize: 2.69 GB
Released: 18th May 2024

File Format: MKV (Matroska)
Resolution: 1920x1080 px
Aspect Ratio: 16:9
Alternate Releases S L
Chief Detective 1958 S01E10 1080p WEB h264-EDITH 1 1

Chief Detective 1958 S01E10 - Episode 10

Summary:

Yeonghan discovers Doseok's secrets, prompting Doseok to hatch a sinister plan.



Chief Detective 1958 S01E10 2024 1080p DSNP WEB-DL H264 AAC-ADWeb EZTV
Chief Detective 1958 S1E10 Screenshot


General
Unique ID: 276487059991001215355544962989998781571 (0xD0017886D2861881B8CC20394BA8B483)
Complete name: Chief.Detective.1958.S01E10.2024.1080p.DSNP.WEB-DL.H264.AAC-ADWeb.mkv
Format: Matroska
Format version: Version 4
File size: 2.69 GiB
Duration: 1 h 5 min
Overall bit rate mode: Variable
Overall bit rate: 5 911 kb/s
Frame rate: 23.976 FPS
Encoded date: 2024-05-18 14:29:30 UTC
Writing application: mkvmerge v83.0 ('Circle Of Friends') 64-bit
Writing library: libebml v1.4.5 + libmatroska v1.7.1

Video
ID: 1
Format: AVC
Format/Info: Advanced Video Codec
Format profile: High@L4
Format settings: CABAC / 4 Ref Frames
Format settings, CABAC: Yes
Format settings, Reference frames: 4 frames
Codec ID: V_MPEG4/ISO/AVC
Duration: 1 h 5 min
Bit rate mode: Variable
Bit rate: 5 783 kb/s
Maximum bit rate: 12.7 Mb/s
Width: 1 920 pixels
Height: 1 080 pixels
Display aspect ratio: 16:9
Frame rate mode: Constant
Frame rate: 23.976 (24000/1001) FPS
Color space: YUV
Chroma subsampling: 4:2:0
Bit depth: 8 bits
Scan type: Progressive
Bits/(Pixel*Frame): 0.116
Time code of first frame: 00:00:00:0000000000
Stream size: 2.63 GiB (98%)
Default: Yes
Forced: No
Color range: Limited
Color primaries: BT.709
Transfer characteristics: BT.709
Matrix coefficients: BT.709

Audio
ID: 2
Format: AAC LC
Format/Info: Advanced Audio Codec Low Complexity
Codec ID: A_AAC-2
Duration: 1 h 5 min
Bit rate: 125 kb/s
Channel(s): 2 channels
Channel layout: L R
Sampling rate: 48.0 kHz
Frame rate: 46.875 FPS (1024 SPF)
Compression mode: Lossy
Stream size: 58.5 MiB (2%)
Title: Korean
Language: Korean
Default: Yes
Forced: No

Text #1
ID: 3
Format: UTF-8
Codec ID: S_TEXT/UTF8
Codec ID/Info: UTF-8 Plain Text
Duration: 1 h 4 min
Bit rate: 52 b/s
Frame rate: 0.244 FPS
Count of elements: 946
Stream size: 24.9 KiB (0%)
Title: Chinese (Traditional)
Language: Chinese
Default: No
Forced: No

Text #2
ID: 4
Format: UTF-8
Codec ID: S_TEXT/UTF8
Codec ID/Info: UTF-8 Plain Text
Duration: 1 h 5 min
Bit rate: 71 b/s
Frame rate: 0.296 FPS
Count of elements: 1158
Stream size: 34.3 KiB (0%)
Title: English [CC]
Language: English
Default: No
Forced: No

Text #3
ID: 5
Format: UTF-8
Codec ID: S_TEXT/UTF8
Codec ID/Info: UTF-8 Plain Text
Duration: 1 h 4 min
Bit rate: 55 b/s
Frame rate: 0.230 FPS
Count of elements: 894
Stream size: 26.4 KiB (0%)
Title: Japanese
Language: Japanese
Default: No
Forced: No

Text #4
ID: 6
Format: UTF-8
Codec ID: S_TEXT/UTF8
Codec ID/Info: UTF-8 Plain Text
Duration: 1 h 5 min
Bit rate: 83 b/s
Frame rate: 0.299 FPS
Count of elements: 1170
Stream size: 39.7 KiB (0%)
Title: Korean [CC]
Language: Korean
Default: No
Forced: No

Text #5
ID: 7
Format: UTF-8
Codec ID: S_TEXT/UTF8
Codec ID/Info: UTF-8 Plain Text
Duration: 1 h 4 min
Bit rate: 52 b/s
Frame rate: 0.244 FPS
Count of elements: 946
Stream size: 24.9 KiB (0%)
Title: Chinese (Simplified)
Language: Chinese
Default: Yes
Forced: No

ssl  EZTV RSS EZTV Status | EZTV API | DMCA: [email protected]