eztv.wf | eztvstatus.org
Search title:  
TV Packs only
 

Bodkin S01E03 1080p WEBRip HDR10 10Bit DDP5 1 Atmos HEVC-d3g EZTV

Episode Breakdown
Bodkin
Bodkin TV Show S01E03

Season: 1
Episode: 3
Air Date: 9 May, 2024
Download Links
     Torrent Download     Magnet Download
     Anonymous Download
Added 1 month ago by eztv (verified).
Tracker Statistics
Seeds: 5
Peers: 4
Stats generated @ 04:27 on 22nd Jun 2024
Torrent Info
Torrent File: Bodkin S01E03 1080p WEBRip HDR10 10Bit DDP5 1 Atmos HEVC-d3g[EZTVx.to].mkv
Torrent Hash: A5750959E071C6EB28ABE4C08673E731C5249B54
Filesize: 1.72 GB
Released: 20th May 2024

File Format: MKV (Matroska)
Resolution: 1920x1080 px
Aspect Ratio: 16:9
Alternate Releases S L
Bodkin S01E03 XviD-AFG 7 0
Bodkin S01E03 Perfectly Innocent Life 1080p NF WEB-DL DDP5 1 Atmos H 264-FLUX 1 8
Bodkin S01E03 1080p HEVC x265-MeGusta 15 7
Bodkin S01E03 1080p WEB H264-NHTFS 14 2

Bodkin S01E03 - Perfectly Innocent Life

Summary:

The group digs for more clues after a beloved local's death. New details about the Samhain disappearances force Dove to wade through murky territory.



Bodkin S01E03 1080p WEBRip HDR10 10Bit DDP5 1 Atmos HEVC-d3g EZTV
Bodkin S1E3 Screenshot


General
Unique ID: 253607850861721459951420902828579736185 (0xBECB186CD4B7A50B8A581976B4CFCA79)
Complete name: Bodkin S01E03 1080p WEBRip HDR10 10Bit DDP5 1 Atmos HEVC-d3g.mkv
Format: Matroska
Format version: Version 2
File size: 1.72 GiB
Duration: 53 min 1 s
Overall bit rate: 4 651 kb/s
Frame rate: 24.000 FPS
Movie name: Bodkin.S01E03.1080p.WEBRip.HDR10.10Bit.DDP5.1.Atmos.HEVC-d3g
Encoded date: 2024-05-18 20:58:22 UTC
Writing application: DVDFab 12.1.1.5
Writing library: libebml v1.4.2 + libmatroska v1.6.3

Video
ID: 1
Format: HEVC
Format/Info: High Efficiency Video Coding
Format profile: Main [email protected]@High
HDR format: SMPTE ST 2086, HDR10 compatible
Codec ID: V_MPEGH/ISO/HEVC
Duration: 53 min 1 s
Bit rate: 3 825 kb/s
Width: 1 920 pixels
Height: 1 080 pixels
Display aspect ratio: 16:9
Frame rate mode: Constant
Frame rate: 24.000 FPS
Color space: YUV
Chroma subsampling: 4:2:0 (Type 2)
Bit depth: 10 bits
Bits/(Pixel*Frame): 0.077
Stream size: 1.42 GiB (82%)
Default: Yes
Forced: No
Color range: Limited
Color primaries: BT.2020
Transfer characteristics: PQ
Matrix coefficients: BT.2020 non-constant
Mastering display color primaries: Display P3
Mastering display luminance: min: 0.0001 cd/m2, max: 1000 cd/m2
Maximum Content Light Level: 103 cd/m2
Maximum Frame-Average Light Level: 69 cd/m2

Audio
ID: 2
Format: E-AC-3 JOC
Format/Info: Enhanced AC-3 with Joint Object Coding
Commercial name: Dolby Digital Plus with Dolby Atmos
Codec ID: A_EAC3
Duration: 53 min 1 s
Bit rate mode: Constant
Bit rate: 768 kb/s
Channel(s): 6 channels
Channel layout: L R C LFE Ls Rs
Sampling rate: 48.0 kHz
Frame rate: 31.250 FPS (1536 SPF)
Compression mode: Lossy
Stream size: 291 MiB (17%)
Language: English
Service kind: Complete Main
Default: Yes
Forced: No
Complexity index: 16
Number of dynamic objects: 15
Bed channel count: 1 channel
Bed channel configuration: LFE

Text
ID: 3
Format: PGS
Codec ID: S_HDMV/PGS
Codec ID/Info: Picture based subtitle format used on BDs/HD-DVDs
Duration: 51 min 17 s
Bit rate: 57.2 kb/s
Frame rate: 0.637 FPS
Count of elements: 1960
Stream size: 21.0 MiB (1%)
Language: English
Default: Yes
Forced: No

Menu
00:00:00.000: en:Chapter 1
00:49:17.000: en:Chapter 2

ssl  EZTV RSS EZTV Status | EZTV API | DMCA: [email protected]