eztv.wf | eztvstatus.org
Search title:  
TV Packs only
 

Bodkin S01E04 1080p WEBRip HDR10 10Bit DDP5 1 Atmos HEVC-d3g EZTV

Episode Breakdown
Bodkin
Bodkin TV Show S01E04

Season: 1
Episode: 4
Air Date: 9 May, 2024
Download Links
     Torrent Download     Magnet Download
     Anonymous Download
Added 1 month ago by eztv (verified).
Tracker Statistics
Seeds: 4
Peers: 6
Stats generated @ 05:12 on 22nd Jun 2024
Torrent Info
Torrent File: Bodkin S01E04 1080p WEBRip HDR10 10Bit DDP5 1 Atmos HEVC-d3g[EZTVx.to].mkv
Torrent Hash: E249B23117496729FF2F6E5553A41CD24A525137
Filesize: 1.79 GB
Released: 20th May 2024

File Format: MKV (Matroska)
Resolution: 1920x1080 px
Aspect Ratio: 16:9
Alternate Releases S L
Bodkin S01E04 1080p HEVC x265-MeGusta 20 3
Bodkin S01E04 Poison or Something 1080p NF WEB-DL DDP5 1 Atmos H 264-FLUX 1 1
Bodkin S01E04 1080p WEB H264-NHTFS 13 4

Bodkin S01E04 - Poison or Something

Summary:

The crew's investigation takes a bizarre turn, jeopardizing their podcast. Gilbert attempts to settle a debt, while Dove gives Emmy harsh advice.



Bodkin S01E04 1080p WEBRip HDR10 10Bit DDP5 1 Atmos HEVC-d3g EZTV
Bodkin S1E4 Screenshot


General
Unique ID: 185057713340784402744852120577066814926 (0x8B38D1B439ECA4CCB234F3D3EFBE4DCE)
Complete name: Bodkin S01E04 1080p WEBRip HDR10 10Bit DDP5 1 Atmos HEVC-d3g.mkv
Format: Matroska
Format version: Version 2
File size: 1.79 GiB
Duration: 56 min 6 s
Overall bit rate: 4 554 kb/s
Frame rate: 24.000 FPS
Movie name: Bodkin.S01E04.1080p.WEBRip.HDR10.10Bit.DDP5.1.Atmos.HEVC-d3g
Encoded date: 2024-05-18 21:01:05 UTC
Writing application: DVDFab 12.1.1.5
Writing library: libebml v1.4.2 + libmatroska v1.6.3

Video
ID: 1
Format: HEVC
Format/Info: High Efficiency Video Coding
Format profile: Main [email protected]@High
HDR format: SMPTE ST 2086, HDR10 compatible
Codec ID: V_MPEGH/ISO/HEVC
Duration: 56 min 6 s
Bit rate: 3 734 kb/s
Width: 1 920 pixels
Height: 1 080 pixels
Display aspect ratio: 16:9
Frame rate mode: Constant
Frame rate: 24.000 FPS
Color space: YUV
Chroma subsampling: 4:2:0 (Type 2)
Bit depth: 10 bits
Bits/(Pixel*Frame): 0.075
Stream size: 1.46 GiB (82%)
Default: Yes
Forced: No
Color range: Limited
Color primaries: BT.2020
Transfer characteristics: PQ
Matrix coefficients: BT.2020 non-constant
Mastering display color primaries: Display P3
Mastering display luminance: min: 0.0001 cd/m2, max: 1000 cd/m2
Maximum Content Light Level: 103 cd/m2
Maximum Frame-Average Light Level: 73 cd/m2

Audio
ID: 2
Format: E-AC-3 JOC
Format/Info: Enhanced AC-3 with Joint Object Coding
Commercial name: Dolby Digital Plus with Dolby Atmos
Codec ID: A_EAC3
Duration: 56 min 6 s
Bit rate mode: Constant
Bit rate: 768 kb/s
Channel(s): 6 channels
Channel layout: L R C LFE Ls Rs
Sampling rate: 48.0 kHz
Frame rate: 31.250 FPS (1536 SPF)
Compression mode: Lossy
Stream size: 308 MiB (17%)
Language: English
Service kind: Complete Main
Default: Yes
Forced: No
Complexity index: 16
Number of dynamic objects: 15
Bed channel count: 1 channel
Bed channel configuration: LFE

Text
ID: 3
Format: PGS
Codec ID: S_HDMV/PGS
Codec ID/Info: Picture based subtitle format used on BDs/HD-DVDs
Duration: 54 min 26 s
Bit rate: 51.8 kb/s
Frame rate: 0.630 FPS
Count of elements: 2058
Stream size: 20.2 MiB (1%)
Language: English
Default: Yes
Forced: No

Menu
00:00:00.000: en:Chapter 1
00:52:24.000: en:Chapter 2

ssl  EZTV RSS EZTV Status | EZTV API | DMCA: [email protected]