eztv.wf | eztvstatus.org
Search title:  
TV Packs only
 

Bodkin S01E05 1080p WEBRip HDR10 10Bit DDP5 1 Atmos HEVC-d3g EZTV

Episode Breakdown
Bodkin
Bodkin TV Show S01E05

Season: 1
Episode: 5
Air Date: 9 May, 2024
Download Links
     Torrent Download     Magnet Download
     Anonymous Download
Added 1 month ago by eztv (verified).
Tracker Statistics
Seeds: 5
Peers: 3
Stats generated @ 06:12 on 22nd Jun 2024
Torrent Info
Torrent File: Bodkin S01E05 1080p WEBRip HDR10 10Bit DDP5 1 Atmos HEVC-d3g[EZTVx.to].mkv
Torrent Hash: 5E05A4F1E51DEDD899860836C2577A517BBA9206
Filesize: 1.55 GB
Released: 20th May 2024

File Format: MKV (Matroska)
Resolution: 1920x1080 px
Aspect Ratio: 16:9
Alternate Releases S L
Bodkin S01E05 XviD-AFG 4 1
Bodkin S01E05 1080p HEVC x265-MeGusta 16 5
Bodkin S01E05 1080p WEB H264-NHTFS 10 5

Bodkin S01E05 - Peace in Our Time

Summary:

Gilbert learns about Bodkin's shady dealings. Dove stirs up trouble at the pub. With new evidence, the crew pieces together a shocking narrative.



Bodkin S01E05 1080p WEBRip HDR10 10Bit DDP5 1 Atmos HEVC-d3g EZTV
Bodkin S1E5 Screenshot


General
Unique ID: 201709798612046120200434668255428286179 (0x97BFE4E533642944B81A7C57DF1116E3)
Complete name: Bodkin S01E05 1080p WEBRip HDR10 10Bit DDP5 1 Atmos HEVC-d3g.mkv
Format: Matroska
Format version: Version 2
File size: 1.55 GiB
Duration: 47 min 52 s
Overall bit rate: 4 635 kb/s
Frame rate: 24.000 FPS
Movie name: Bodkin.S01E05.1080p.WEBRip.HDR10.10Bit.DDP5.1.Atmos.HEVC-d3g
Encoded date: 2024-05-18 21:03:59 UTC
Writing application: DVDFab 12.1.1.5
Writing library: libebml v1.4.2 + libmatroska v1.6.3

Video
ID: 1
Format: HEVC
Format/Info: High Efficiency Video Coding
Format profile: Main [email protected]@High
HDR format: SMPTE ST 2086, HDR10 compatible
Codec ID: V_MPEGH/ISO/HEVC
Duration: 47 min 52 s
Bit rate: 3 809 kb/s
Width: 1 920 pixels
Height: 1 080 pixels
Display aspect ratio: 16:9
Frame rate mode: Constant
Frame rate: 24.000 FPS
Color space: YUV
Chroma subsampling: 4:2:0 (Type 2)
Bit depth: 10 bits
Bits/(Pixel*Frame): 0.077
Stream size: 1.27 GiB (82%)
Default: Yes
Forced: No
Color range: Limited
Color primaries: BT.2020
Transfer characteristics: PQ
Matrix coefficients: BT.2020 non-constant
Mastering display color primaries: Display P3
Mastering display luminance: min: 0.0001 cd/m2, max: 1000 cd/m2
Maximum Content Light Level: 103 cd/m2
Maximum Frame-Average Light Level: 40 cd/m2

Audio
ID: 2
Format: E-AC-3 JOC
Format/Info: Enhanced AC-3 with Joint Object Coding
Commercial name: Dolby Digital Plus with Dolby Atmos
Codec ID: A_EAC3
Duration: 47 min 52 s
Bit rate mode: Constant
Bit rate: 768 kb/s
Channel(s): 6 channels
Channel layout: L R C LFE Ls Rs
Sampling rate: 48.0 kHz
Frame rate: 31.250 FPS (1536 SPF)
Compression mode: Lossy
Stream size: 263 MiB (17%)
Language: English
Service kind: Complete Main
Default: Yes
Forced: No
Complexity index: 16
Number of dynamic objects: 15
Bed channel count: 1 channel
Bed channel configuration: LFE

Text
ID: 3
Format: PGS
Codec ID: S_HDMV/PGS
Codec ID/Info: Picture based subtitle format used on BDs/HD-DVDs
Duration: 46 min 10 s
Bit rate: 57.6 kb/s
Frame rate: 0.681 FPS
Count of elements: 1886
Stream size: 19.0 MiB (1%)
Language: English
Default: Yes
Forced: No

Menu
00:00:00.000: en:Chapter 1
00:44:10.000: en:Chapter 2

ssl  EZTV RSS EZTV Status | EZTV API | DMCA: [email protected]