eztv.wf | eztvstatus.org
Search title:  
TV Packs only
 

A Man in Full S01E04 2024 1080p WEBRip HDR10 10Bit DDP5 1 HEVC-d3g EZTV

Episode Breakdown
A Man in Full
A Man in Full TV Show S01E04

Season: 1
Episode: 4
Air Date: 2 May, 2024
Download Links
     Torrent Download     Magnet Download
     Anonymous Download
Added 26 days ago by eztv (verified).
Tracker Statistics
Seeds: 4
Peers: 5
Stats generated @ 16:51 on 17th Jun 2024
Torrent Info
Torrent File: A Man in Full S01E04 2024 1080p WEBRip HDR10 10Bit DDP5 1 HEVC-d3g[EZTVx.to].mkv
Torrent Hash: 8EC78ACE4D06508D63EC2FF942855822FD03A721
Filesize: 2.64 GB
Released: 21st May 2024

File Format: MKV (Matroska)
Resolution: 1920x1080 px
Aspect Ratio: 16:9
Alternate Releases S L
A Man in Full S01E04 1080p WEB H264-PropheticSpeedyToucanOfCompetition 10 1
A Man in Full S01E04 1080p HEVC x265-MeGusta 4 0
A Man in Full S01E04 XviD-AFG 3 1
A Man In Full S01E04 MULTI 1080p WEB x264-HiggsBoson 4 1

A Man in Full S01E04 - Tick Tick

Summary:

Conrad adjusts to his new reality. Raymond takes a huge gamble. Charlie finds strength after surgery only to be reminded of his ongoing financial woes.



A Man in Full S01E04 2024 1080p WEBRip HDR10 10Bit DDP5 1 HEVC-d3g EZTV
A Man in Full S1E4 Screenshot


General
Unique ID: 184055878016701648749037941279703993014 (0x8A77DF68B2309C3C98B93A6EB4A88AB6)
Complete name: A Man in Full S01E04 2024 1080p WEBRip HDR10 10Bit DDP5 1 HEVC-d3g.mkv
Format: Matroska
Format version: Version 2
File size: 2.64 GiB
Duration: 48 min 45 s
Overall bit rate: 7 758 kb/s
Frame rate: 23.976 FPS
Movie name: A.Man.in.Full.S01E04.2024.1080p.WEBRip.HDR10.10Bit.DDP5.1.HEVC-d3g
Encoded date: 2024-05-20 19:43:36 UTC
Writing application: DVDFab 12.1.1.5
Writing library: libebml v1.4.2 + libmatroska v1.6.3

Video
ID: 1
Format: HEVC
Format/Info: High Efficiency Video Coding
Format profile: Main [email protected]@High
HDR format: SMPTE ST 2086, HDR10 compatible
Codec ID: V_MPEGH/ISO/HEVC
Duration: 48 min 44 s
Bit rate: 7 065 kb/s
Width: 1 920 pixels
Height: 1 080 pixels
Display aspect ratio: 16:9
Frame rate mode: Constant
Frame rate: 23.976 (24000/1001) FPS
Color space: YUV
Chroma subsampling: 4:2:0 (Type 2)
Bit depth: 10 bits
Bits/(Pixel*Frame): 0.142
Stream size: 2.41 GiB (91%)
Default: Yes
Forced: No
Color range: Limited
Color primaries: BT.2020
Transfer characteristics: PQ
Matrix coefficients: BT.2020 non-constant
Mastering display color primaries: Display P3
Mastering display luminance: min: 0.0001 cd/m2, max: 1000 cd/m2
Maximum Content Light Level: 772 cd/m2
Maximum Frame-Average Light Level: 151 cd/m2

Audio
ID: 2
Format: E-AC-3
Format/Info: Enhanced AC-3
Commercial name: Dolby Digital Plus
Codec ID: A_EAC3
Duration: 48 min 45 s
Bit rate mode: Constant
Bit rate: 640 kb/s
Channel(s): 6 channels
Channel layout: L R C LFE Ls Rs
Sampling rate: 48.0 kHz
Frame rate: 31.250 FPS (1536 SPF)
Compression mode: Lossy
Stream size: 223 MiB (8%)
Language: English
Service kind: Complete Main
Default: Yes
Forced: No

Text
ID: 3
Format: PGS
Codec ID: S_HDMV/PGS
Codec ID/Info: Picture based subtitle format used on BDs/HD-DVDs
Duration: 46 min 34 s
Bit rate: 54.5 kb/s
Frame rate: 0.578 FPS
Count of elements: 1614
Stream size: 18.2 MiB (1%)
Language: English
Default: Yes
Forced: No

Menu
00:00:00.000: en:Chapter 1
00:44:43.000: en:Chapter 2

ssl  EZTV RSS EZTV Status | EZTV API | DMCA: [email protected]