eztv.wf | eztvstatus.org
Search title:  
TV Packs only
 

A Man in Full S01E03 2024 1080p WEBRip HDR10 10Bit DDP5 1 HEVC-d3g EZTV

Episode Breakdown
A Man in Full
A Man in Full TV Show S01E03

Season: 1
Episode: 3
Air Date: 2 May, 2024
Download Links
     Torrent Download     Magnet Download
     Anonymous Download
Added 26 days ago by eztv (verified).
Tracker Statistics
Seeds: 8
Peers: 2
Stats generated @ 15:41 on 17th Jun 2024
Torrent Info
Torrent File: A Man in Full S01E03 2024 1080p WEBRip HDR10 10Bit DDP5 1 HEVC-d3g[EZTVx.to].mkv
Torrent Hash: 38495930BFBAC43EB05F71FEC35C330B6C95BEA0
Filesize: 2.31 GB
Released: 21st May 2024

File Format: MKV (Matroska)
Resolution: 1920x1080 px
Aspect Ratio: 16:9
Alternate Releases S L
A Man in Full S01E03 1080p WEB H264-PropheticSpeedyToucanOfCompetition 9 2
A Man in Full S01E03 XviD-AFG 5 3
A Man in Full S01E03 The Takedown 1080p NF WEB-DL DDP5 1 H 264-FLUX 2 0
A Man In Full S01E03 MULTI 1080p WEB x264-HiggsBoson 5 1

A Man in Full S01E03 - The Takedown

Summary:

A shocking spectacle breeds tensions at Turpmtine. Roger's aspirations to help Conrad take a hit. At a charity gala, old acquaintances reconnect.



A Man in Full S01E03 2024 1080p WEBRip HDR10 10Bit DDP5 1 HEVC-d3g EZTV
A Man in Full S1E3 Screenshot


General
Unique ID: 247030427520137716325262267223490039989 (0xB9D8546ABB0FD24BBCD5DA5BC6CE10B5)
Complete name: A Man in Full S01E03 2024 1080p WEBRip HDR10 10Bit DDP5 1 HEVC-d3g.mkv
Format: Matroska
Format version: Version 2
File size: 2.31 GiB
Duration: 43 min 34 s
Overall bit rate: 7 584 kb/s
Frame rate: 23.976 FPS
Movie name: A.Man.in.Full.S01E03.2024.1080p.WEBRip.HDR10.10Bit.DDP5.1.HEVC-d3g
Encoded date: 2024-05-20 19:41:14 UTC
Writing application: DVDFab 12.1.1.5
Writing library: libebml v1.4.2 + libmatroska v1.6.3

Video
ID: 1
Format: HEVC
Format/Info: High Efficiency Video Coding
Format profile: Main [email protected]@High
HDR format: SMPTE ST 2086, HDR10 compatible
Codec ID: V_MPEGH/ISO/HEVC
Duration: 43 min 34 s
Bit rate: 6 893 kb/s
Width: 1 920 pixels
Height: 1 080 pixels
Display aspect ratio: 16:9
Frame rate mode: Constant
Frame rate: 23.976 (24000/1001) FPS
Color space: YUV
Chroma subsampling: 4:2:0 (Type 2)
Bit depth: 10 bits
Bits/(Pixel*Frame): 0.139
Stream size: 2.10 GiB (91%)
Default: Yes
Forced: No
Color range: Limited
Color primaries: BT.2020
Transfer characteristics: PQ
Matrix coefficients: BT.2020 non-constant
Mastering display color primaries: Display P3
Mastering display luminance: min: 0.0001 cd/m2, max: 1000 cd/m2
Maximum Content Light Level: 774 cd/m2
Maximum Frame-Average Light Level: 126 cd/m2

Audio
ID: 2
Format: E-AC-3
Format/Info: Enhanced AC-3
Commercial name: Dolby Digital Plus
Codec ID: A_EAC3
Duration: 43 min 34 s
Bit rate mode: Constant
Bit rate: 640 kb/s
Channel(s): 6 channels
Channel layout: L R C LFE Ls Rs
Sampling rate: 48.0 kHz
Frame rate: 31.250 FPS (1536 SPF)
Compression mode: Lossy
Stream size: 199 MiB (8%)
Language: English
Service kind: Complete Main
Default: Yes
Forced: No

Text
ID: 3
Format: PGS
Codec ID: S_HDMV/PGS
Codec ID/Info: Picture based subtitle format used on BDs/HD-DVDs
Duration: 41 min 15 s
Bit rate: 52.2 kb/s
Frame rate: 0.559 FPS
Count of elements: 1384
Stream size: 15.4 MiB (1%)
Language: English
Default: Yes
Forced: No

Menu
00:00:00.000: en:Chapter 1
00:39:31.000: en:Chapter 2

ssl  EZTV RSS EZTV Status | EZTV API | DMCA: [email protected]