eztv.wf | eztvstatus.org
Search title:  
TV Packs only
 

Chief Detective 1958 S01E03 Highwaymen 720p DSNP WEB-DL AAC2 0 H 264-playWEB EZTV

Episode Breakdown
Chief Detective 1958
Chief Detective 1958 TV Show S01E03

Season: 1
Episode: 3
Air Date: 26 April, 2024
Download Links
     Torrent Download     Magnet Download
     Anonymous Download
Added 1 month ago by eztv (verified).
Tracker Statistics
Seeds: 1
Peers: 2
Stats generated @ 05:33 on 22nd Jun 2024
Torrent Info
Torrent File: Chief Detective 1958 S01E03 Highwaymen 720p DSNP WEB-DL AAC2 0 H 264-playWEB[EZTVx.to].mkv
Torrent Hash: A43E3E4B0A4915E50ED63F76E286A402D0B1DF70
Filesize: 1.48 GB
Released: 22nd May 2024

File Format: MKV (Matroska)
Resolution: 1280x720 px
Aspect Ratio: 16:9
Alternate Releases S L
Chief Detective 1958 S01E03 1080p WEB h264-EDITH 3 3

Chief Detective 1958 S01E03 - Episode 3

Summary:

Yeonghan warns of robbers heading to Seoul, but Senior Superintendent Choi dismisses his concerns.



Chief Detective 1958 S01E03 Highwaymen 720p DSNP WEB-DL AAC2 0 H 264-playWEB EZTV
Chief Detective 1958 S1E3 Screenshot


General
Unique ID: 129301385956831607182851357012885065096 (0x61468A85F4AF6B538FFCA68167854D88)
Complete name: Chief Detective 1958 S01E03 Highwaymen 720p DSNP WEB-DL AAC2 0 H 264-playWEB.mkv
Format: Matroska
Format version: Version 4
File size: 1.48 GiB
Duration: 1 h 10 min
Overall bit rate mode: Variable
Overall bit rate: 3 018 kb/s
Frame rate: 23.976 FPS
Writing application: mkvmerge v84.0 ('Sleeper') 64-bit
Writing library: libebml v1.4.5 + libmatroska v1.7.1

Video
ID: 1
Format: AVC
Format/Info: Advanced Video Codec
Format profile: [email protected]
Format settings: CABAC / 4 Ref Frames
Format settings, CABAC: Yes
Format settings, Reference frames: 4 frames
Codec ID: V_MPEG4/ISO/AVC
Duration: 1 h 10 min
Bit rate mode: Variable
Bit rate: 2 889 kb/s
Maximum bit rate: 6 375 kb/s
Width: 1 280 pixels
Height: 720 pixels
Display aspect ratio: 16:9
Frame rate mode: Constant
Frame rate: 23.976 (24000/1001) FPS
Color space: YUV
Chroma subsampling: 4:2:0
Bit depth: 8 bits
Scan type: Progressive
Bits/(Pixel*Frame): 0.131
Time code of first frame: 00:00:00:0000000000
Stream size: 1.42 GiB (96%)
Default: Yes
Forced: No
Color range: Limited
Color primaries: BT.709
Transfer characteristics: BT.709
Matrix coefficients: BT.709

Audio
ID: 2
Format: AAC LC
Format/Info: Advanced Audio Codec Low Complexity
Codec ID: A_AAC-2
Duration: 1 h 10 min
Bit rate: 125 kb/s
Channel(s): 2 channels
Channel layout: L R
Sampling rate: 48.0 kHz
Frame rate: 46.875 FPS (1024 SPF)
Compression mode: Lossy
Stream size: 62.9 MiB (4%)
Language: Korean
Default: Yes
Forced: No

Text #1
ID: 3
Format: UTF-8
Codec ID: S_TEXT/UTF8
Codec ID/Info: UTF-8 Plain Text
Duration: 1 h 9 min
Bit rate: 67 b/s
Frame rate: 0.274 FPS
Count of elements: 1144
Stream size: 34.3 KiB (0%)
Language: English
Default: No
Forced: No

Text #2
ID: 4
Format: UTF-8
Codec ID: S_TEXT/UTF8
Codec ID/Info: UTF-8 Plain Text
Duration: 1 h 10 min
Bit rate: 82 b/s
Frame rate: 0.327 FPS
Count of elements: 1377
Stream size: 42.6 KiB (0%)
Title: SDH
Language: English
Default: No
Forced: No

Text #3
ID: 5
Format: UTF-8
Codec ID: S_TEXT/UTF8
Codec ID/Info: UTF-8 Plain Text
Duration: 1 h 9 min
Bit rate: 63 b/s
Frame rate: 0.268 FPS
Count of elements: 1120
Stream size: 32.6 KiB (0%)
Language: Japanese
Default: No
Forced: No

Text #4
ID: 6
Format: UTF-8
Codec ID: S_TEXT/UTF8
Codec ID/Info: UTF-8 Plain Text
Duration: 1 h 9 min
Bit rate: 72 b/s
Frame rate: 0.282 FPS
Count of elements: 1176
Stream size: 37.0 KiB (0%)
Language: Korean
Default: No
Forced: No

Text #5
ID: 7
Format: UTF-8
Codec ID: S_TEXT/UTF8
Codec ID/Info: UTF-8 Plain Text
Duration: 1 h 10 min
Bit rate: 97 b/s
Frame rate: 0.336 FPS
Count of elements: 1415
Stream size: 49.9 KiB (0%)
Title: SDH
Language: Korean
Default: No
Forced: No

Text #6
ID: 8
Format: UTF-8
Codec ID: S_TEXT/UTF8
Codec ID/Info: UTF-8 Plain Text
Duration: 1 h 9 min
Bit rate: 64 b/s
Frame rate: 0.276 FPS
Count of elements: 1154
Stream size: 32.7 KiB (0%)
Title: Traditional
Language: Chinese
Default: No
Forced: No

Menu
00:00:04.004: en:Intro
00:00:22.523: en:Scene 1
01:09:41.265: en:Credits

ssl  EZTV RSS EZTV Status | EZTV API | DMCA: [email protected]