eztv.wf | eztvstatus.org
Search title:  
TV Packs only
 

Brigada Nimic S01E03 1080p WEB-DL AAC2 0 H 264-playWEB EZTV

Episode Breakdown
Brigada Nimic
Brigada Nimic TV Show S01E03

Season: 1
Episode: 3
Download Links
     Torrent Download     Magnet Download
     Anonymous Download
Added 2 months ago by eztv (verified).
Tracker Statistics
Seeds: 0
Peers: 2
Stats generated @ 22:40 on 23rd Jul 2024
Torrent Info
Torrent File: Brigada Nimic S01E03 1080p WEB-DL AAC2 0 H 264-playWEB[EZTVx.to].mkv
Torrent Hash: 1A7CBD2914787B4690839E9E140049CCEA20D65E
Filesize: 1.59 GB
Released: 23rd May 2024

File Format: MKV (Matroska)
Resolution: 1920x1080 px
Aspect Ratio: 16:9
Alternate Releases S L
Brigada Nimic S01E03 720p WEB-DL AAC2 0 H 264-playWEB 0 1

Episode Description


Brigada Nimic S01E03 1080p WEB-DL AAC2 0 H 264-playWEB EZTV
Brigada Nimic S1E3 Screenshot


General
Unique ID: 74762153364378515694173308853949118939 (0x383EAABFAB3204FB0167AC70830939DB)
Complete name: Brigada Nimic S01E03 1080p WEB-DL AAC2 0 H 264-playWEB.mkv
Format: Matroska
Format version: Version 4
File size: 1.59 GiB
Duration: 44 min 28 s
Overall bit rate mode: Variable
Overall bit rate: 5 130 kb/s
Frame rate: 25.000 FPS
Writing application: mkvmerge v84.0 ('Sleeper') 64-bit
Writing library: libebml v1.4.5 + libmatroska v1.7.1 / Lavf59.0.100

Video
ID: 1
Format: AVC
Format/Info: Advanced Video Codec
Format profile: Main@L4
Format settings: CABAC / 4 Ref Frames
Format settings, CABAC: Yes
Format settings, Reference frames: 4 frames
Codec ID: V_MPEG4/ISO/AVC
Duration: 44 min 28 s
Bit rate mode: Variable
Bit rate: 5 000 kb/s
Width: 1 920 pixels
Height: 1 080 pixels
Display aspect ratio: 16:9
Frame rate mode: Constant
Frame rate: 25.000 FPS
Color space: YUV
Chroma subsampling: 4:2:0
Bit depth: 8 bits
Scan type: Progressive
Bits/(Pixel*Frame): 0.096
Stream size: 1.55 GiB (97%)
Default: Yes
Forced: No
Color range: Limited
Color primaries: BT.709
Transfer characteristics: BT.709
Matrix coefficients: BT.709

Audio
ID: 2
Format: AAC LC
Format/Info: Advanced Audio Codec Low Complexity
Codec ID: A_AAC-2
Duration: 44 min 28 s
Bit rate: 128 kb/s
Channel(s): 2 channels
Channel layout: L R
Sampling rate: 44.1 kHz
Frame rate: 43.066 FPS (1024 SPF)
Compression mode: Lossy
Stream size: 40.7 MiB (2%)
Language: Romanian
Default: Yes
Forced: No

ssl  EZTV RSS EZTV Status | EZTV API | DMCA: [email protected]