eztv.wf | eztvstatus.org
Search title:  
TV Packs only
 

Dream Home AU S01E03 1080p HDTV x264-NGP EZTV

Episode Breakdown
Dream Home
Dream Home TV Show S01E03

Season: 1
Episode: 3
Air Date: 28 May, 2024
Download Links
     Torrent Download     Magnet Download
     Anonymous Download
Added 1 month ago by eztv (verified).
Tracker Statistics
Seeds: 2
Peers: 0
Stats generated @ 23:41 on 23rd Jul 2024
Torrent Info
Torrent File: Dream Home AU S01E03 1080p HDTV x264-NGP[EZTVx.to].mkv
Torrent Hash: 7ABFEC74147EB48F853AAF65412CE1E162AACF9E
Filesize: 1.28 GB
Released: 28th May 2024

File Format: MKV (Matroska)
Resolution: 1920x1080 px
Aspect Ratio: 16:9
Alternate Releases S L
Dream Home S01E03 1080p HDTV H264-FERENGI 4 1
Dream Home S01E03 XviD-AFG 1 1
Dream Home S01E03 720p HDTV x264-ORENJI 2 1
Dream Home S01E03 480p x264-mSD 1 1

Dream Home S01E03 - Episode 3

Summary:

In Episode Three of Dream Home, our six couples have just four days left until they hand over two hopefully half completed dream homes in Northcote and Watsonia, to the Judges.



Dream Home AU S01E03 1080p HDTV x264-NGP EZTV
Dream Home S1E3 Screenshot


General
Unique ID: 12764543752449046933250207260799816060 (0x99A5C98A0EEB99FB679EAA34566517C)
Complete name: Dream Home AU S01E03 1080p HDTV x264-NGP.mkv
Format: Matroska
Format version: Version 4
File size: 1.28 GiB
Duration: 47 min 54 s
Overall bit rate: 3 835 kb/s
Frame rate: 25.000 FPS
Encoded date: 2024-05-28 11:20:54 UTC
Writing application: mkvmerge v58.0.0 ('Supper's Ready') 64-bit
Writing library: libebml v1.4.2 + libmatroska v1.6.4

Video
ID: 1
Format: AVC
Format/Info: Advanced Video Codec
Format profile: High@L4
Format settings: CABAC / 4 Ref Frames
Format settings, CABAC: Yes
Format settings, Reference frames: 4 frames
Codec ID: V_MPEG4/ISO/AVC
Duration: 47 min 54 s
Bit rate: 3 449 kb/s
Width: 1 920 pixels
Height: 1 080 pixels
Display aspect ratio: 16:9
Frame rate mode: Constant
Frame rate: 25.000 FPS
Color space: YUV
Chroma subsampling: 4:2:0
Bit depth: 8 bits
Scan type: MBAFF
Scan type, store method: Interleaved fields
Scan order: Top Field First
Bits/(Pixel*Frame): 0.067
Stream size: 1.15 GiB (90%)
Default: Yes
Forced: No
Color range: Limited

Audio
ID: 2
Format: AC-3
Format/Info: Audio Coding 3
Commercial name: Dolby Digital
Codec ID: A_AC3
Duration: 47 min 54 s
Bit rate mode: Constant
Bit rate: 384 kb/s
Channel(s): 2 channels
Channel layout: L R
Sampling rate: 48.0 kHz
Frame rate: 31.250 FPS (1536 SPF)
Compression mode: Lossy
Stream size: 132 MiB (10%)
Language: English
Service kind: Complete Main
Default: Yes
Forced: No

Text
ID: 3
Format: UTF-8
Codec ID: S_TEXT/UTF8
Codec ID/Info: UTF-8 Plain Text
Duration: 46 min 12 s
Bit rate: 103 b/s
Frame rate: 0.403 FPS
Count of elements: 1118
Stream size: 35.0 KiB (0%)
Language: English
Default: Yes
Forced: No
ssl  EZTV RSS EZTV Status | EZTV API | DMCA: [email protected]