eztv.wf | eztvstatus.org
Search title:  
TV Packs only
 

Dream Home AU S01E02 1080p HDTV x264-NGP EZTV

Episode Breakdown
Dream Home
Dream Home TV Show S01E02

Season: 1
Episode: 2
Air Date: 27 May, 2024
Download Links
     Torrent Download     Magnet Download
     Anonymous Download
Added 1 month ago by eztv (verified).
Tracker Statistics
Seeds: 2
Peers: 2
Stats generated @ 22:34 on 23rd Jul 2024
Torrent Info
Torrent File: Dream.Home.AU.S01E02.1080p.HDTV.x264-NGP[EZTVx.to].mkv
Torrent Hash: 341C6447394A92F2FD4095D9C52B02D2E7A6525A
Filesize: 1.77 GB
Released: 28th May 2024

File Format: MKV (Matroska)
Resolution: 1920x1080 px
Aspect Ratio: 16:9
Alternate Releases S L
Dream Home S01E02 1080p HDTV H264-FERENGI 1 4
Dream Home S01E02 XviD-AFG 0 0
Dream Home S01E02 720p HDTV x264-ORENJI 2 2
Dream Home S01E02 480p x264-mSD 1 0

Dream Home S01E02 - Episode 2

Summary:

In the first two epic Dream Home renovations, the floor plans continue to change at Elle's house in Watsonia. Plagued by delays, some rooms may not even be finished at Brad & Mel's house in Northcote.



Dream Home AU S01E02 1080p HDTV x264-NGP EZTV
Dream Home S1E2 Screenshot


General
Unique ID: 72415017558230768968660503336680923851 (0x367AA004D75F94F750A57DBA6BF3A2CB)
Complete name: Dream.Home.AU.S01E02.1080p.HDTV.x264-NGP.mkv
Format: Matroska
Format version: Version 4
File size: 1.77 GiB
Duration: 1 h 5 min
Overall bit rate: 3 863 kb/s
Frame rate: 25.000 FPS
Encoded date: 2024-05-27 12:33:44 UTC
Writing application: mkvmerge v58.0.0 ('Supper's Ready') 64-bit
Writing library: libebml v1.4.2 + libmatroska v1.6.4

Video
ID: 1
Format: AVC
Format/Info: Advanced Video Codec
Format profile: High@L4
Format settings: CABAC / 4 Ref Frames
Format settings, CABAC: Yes
Format settings, Reference frames: 4 frames
Codec ID: V_MPEG4/ISO/AVC
Duration: 1 h 5 min
Bit rate: 3 477 kb/s
Width: 1 920 pixels
Height: 1 080 pixels
Display aspect ratio: 16:9
Frame rate mode: Constant
Frame rate: 25.000 FPS
Color space: YUV
Chroma subsampling: 4:2:0
Bit depth: 8 bits
Scan type: MBAFF
Scan type, store method: Interleaved fields
Scan order: Top Field First
Bits/(Pixel*Frame): 0.067
Stream size: 1.59 GiB (90%)
Default: Yes
Forced: No
Color range: Limited

Audio
ID: 2
Format: AC-3
Format/Info: Audio Coding 3
Commercial name: Dolby Digital
Codec ID: A_AC3
Duration: 1 h 5 min
Bit rate mode: Constant
Bit rate: 384 kb/s
Channel(s): 2 channels
Channel layout: L R
Sampling rate: 48.0 kHz
Frame rate: 31.250 FPS (1536 SPF)
Compression mode: Lossy
Stream size: 180 MiB (10%)
Language: English
Service kind: Complete Main
Default: Yes
Forced: No

Text
ID: 3
Format: UTF-8
Codec ID: S_TEXT/UTF8
Codec ID/Info: UTF-8 Plain Text
Duration: 1 h 4 min
Bit rate: 101 b/s
Frame rate: 0.362 FPS
Count of elements: 1402
Stream size: 47.8 KiB (0%)
Language: English
Default: Yes
Forced: No
ssl  EZTV RSS EZTV Status | EZTV API | DMCA: [email protected]