eztv.wf | eztvstatus.org
Search title:  
TV Packs only
 

Brigada Nimic S01E02 720p WEB-DL AAC2 0 H 264-playWEB EZTV

Episode Breakdown
Brigada Nimic
Brigada Nimic TV Show S01E02

Season: 1
Episode: 2
Download Links
     Torrent Download     Magnet Download
     Anonymous Download
Added 1 month ago by eztv (verified).
Tracker Statistics
Seeds: 1
Peers: 1
Stats generated @ 22:06 on 23rd Jul 2024
Torrent Info
Torrent File: Brigada Nimic S01E02 720p WEB-DL AAC2 0 H 264-playWEB[EZTVx.to].mkv
Torrent Hash: 366550F910C0C5A677FDAA1D899DCAE364C00736
Filesize: 1.10 GB
Released: 28th May 2024

File Format: MKV (Matroska)
Resolution: 1280x720 px
Aspect Ratio: 16:9

Episode Description


Brigada Nimic S01E02 720p WEB-DL AAC2 0 H 264-playWEB EZTV
Brigada Nimic S1E2 Screenshot


General
Unique ID: 79221626567934287512145745211922560628 (0x3B9987C0C2671870190828E49BBBB674)
Complete name: Brigada Nimic S01E02 720p WEB-DL AAC2 0 H 264-playWEB.mkv
Format: Matroska
Format version: Version 4
File size: 1.10 GiB
Duration: 43 min 17 s
Overall bit rate mode: Variable
Overall bit rate: 3 622 kb/s
Frame rate: 25.000 FPS
Writing application: mkvmerge v83.0 ('Circle Of Friends') 64-bit
Writing library: libebml v1.4.5 + libmatroska v1.7.1

Video
ID: 1
Format: AVC
Format/Info: Advanced Video Codec
Format profile: [email protected]
Format settings: CABAC / 4 Ref Frames
Format settings, CABAC: Yes
Format settings, Reference frames: 4 frames
Codec ID: V_MPEG4/ISO/AVC
Duration: 43 min 17 s
Bit rate mode: Variable
Bit rate: 3 500 kb/s
Width: 1 280 pixels
Height: 720 pixels
Display aspect ratio: 16:9
Frame rate mode: Constant
Frame rate: 25.000 FPS
Color space: YUV
Chroma subsampling: 4:2:0
Bit depth: 8 bits
Scan type: Progressive
Bits/(Pixel*Frame): 0.152
Stream size: 1.06 GiB (96%)
Default: Yes
Forced: No
Color range: Limited
Color primaries: BT.709
Transfer characteristics: BT.709
Matrix coefficients: BT.709

Audio
ID: 2
Format: AAC LC
Format/Info: Advanced Audio Codec Low Complexity
Codec ID: A_AAC-2
Duration: 43 min 17 s
Bit rate: 128 kb/s
Channel(s): 2 channels
Channel layout: L R
Sampling rate: 44.1 kHz
Frame rate: 43.066 FPS (1024 SPF)
Compression mode: Lossy
Stream size: 39.6 MiB (4%)
Language: Romanian
Default: Yes
Forced: No
ssl  EZTV RSS EZTV Status | EZTV API | DMCA: [email protected]