eztv.wf | eztvstatus.org
Search title:  
TV Packs only
 

The Simpsons S35E17 The Tipping Point 1080p DSNP WEB-DL DDP5 1 H 264-NTb EZTV

Episode Breakdown
The Simpsons
The Simpsons TV Show S35E17

Season: 35
Episode: 17
Air Date: 12 May, 2024
Download Links
     Torrent Download     Magnet Download
     Anonymous Download
Added 1 month ago by eztv (verified).
Tracker Statistics
Seeds: 18
Peers: 3
Stats generated @ 16:24 on 14th Jul 2024
Torrent Info
Torrent File: 4149635255fb43c28e53d8a1b3db62b5[EZTVx.to].mkv
Torrent Hash: CF2B7220A4CDA1EECC8C2DBA6605C99CB1464B76
Filesize: 761 MB
Released: 28th May 2024

File Format: MKV (Matroska)
Resolution: 1920x1080 px
Aspect Ratio: 16:9
Alternate Releases S L
The Simpsons S35E17 WEBRip x264-XEN0N 19 4
The Simpsons S35E17 1080p x265-ELiTE 70 10
The Simpsons S35E17 The Tipping Point 720p DSNP WEB-DL DDP5 1 H 264-NTb 15 4

The Simpsons S35E17 - The Tipping Point

Summary:

Homer loses his mind over tipping culture run amok.



The Simpsons S35E17 The Tipping Point 1080p DSNP WEB-DL DDP5 1 H 264-NTb EZTV
The Simpsons S35E17 Screenshot


General
Unique ID: 278588993201513201723240465064382321505 (0xD19649D5C8EEF3E3003BC36D4B725361)
Complete name: 4149635255fb43c28e53d8a1b3db62b5.mkv
Format: Matroska
Format version: Version 4
File size: 761 MiB
Duration: 21 min 39 s
Overall bit rate mode: Variable
Overall bit rate: 4 910 kb/s
Frame rate: 23.976 FPS
Writing application: mkvmerge v80.0 ('Roundabout') 64-bit
Writing library: libebml v1.4.4 + libmatroska v1.7.1

Video
ID: 1
Format: AVC
Format/Info: Advanced Video Codec
Format profile: High@L4
Format settings: CABAC / 4 Ref Frames
Format settings, CABAC: Yes
Format settings, Reference frames: 4 frames
Codec ID: V_MPEG4/ISO/AVC
Duration: 21 min 39 s
Bit rate mode: Variable
Bit rate: 4 651 kb/s
Maximum bit rate: 12.7 Mb/s
Width: 1 920 pixels
Height: 1 080 pixels
Display aspect ratio: 16:9
Frame rate mode: Constant
Frame rate: 23.976 (24000/1001) FPS
Color space: YUV
Chroma subsampling: 4:2:0
Bit depth: 8 bits
Scan type: Progressive
Bits/(Pixel*Frame): 0.094
Time code of first frame: 00:00:00:0000000000
Stream size: 721 MiB (95%)
Default: Yes
Forced: No
Color range: Limited
Color primaries: BT.709
Transfer characteristics: BT.709
Matrix coefficients: BT.709

Audio
ID: 2
Format: E-AC-3
Format/Info: Enhanced AC-3
Commercial name: Dolby Digital Plus
Codec ID: A_EAC3
Duration: 21 min 39 s
Bit rate mode: Constant
Bit rate: 256 kb/s
Channel(s): 6 channels
Channel layout: L R C LFE Ls Rs
Sampling rate: 48.0 kHz
Frame rate: 31.250 FPS (1536 SPF)
Compression mode: Lossy
Stream size: 39.7 MiB (5%)
Language: English
Service kind: Complete Main
Default: Yes
Forced: No

Text #1
ID: 3
Format: UTF-8
Codec ID: S_TEXT/UTF8
Codec ID/Info: UTF-8 Plain Text
Duration: 1 min 15 s
Bit rate: 79 b/s
Frame rate: 0.413 FPS
Count of elements: 31
Stream size: 745 Bytes (0%)
Title: Forced
Language: English
Default: Yes
Forced: Yes

Text #2
ID: 4
Format: UTF-8
Codec ID: S_TEXT/UTF8
Codec ID/Info: UTF-8 Plain Text
Duration: 21 min 28 s
Bit rate: 86 b/s
Frame rate: 0.272 FPS
Count of elements: 350
Stream size: 13.6 KiB (0%)
Language: English
Default: No
Forced: No

Text #3
ID: 5
Format: UTF-8
Codec ID: S_TEXT/UTF8
Codec ID/Info: UTF-8 Plain Text
Duration: 21 min 28 s
Bit rate: 93 b/s
Frame rate: 0.300 FPS
Count of elements: 386
Stream size: 14.7 KiB (0%)
Title: SDH
Language: English
Default: No
Forced: No
ssl  EZTV RSS EZTV Status | EZTV API | DMCA: [email protected]