eztv.wf | eztvstatus.org
Search title:  
TV Packs only
 

Brigada Nimic S01E06 1080p WEB-DL AAC2 0 H 264-playWEB EZTV

Episode Breakdown
Brigada Nimic
Brigada Nimic TV Show S01E06

Season: 1
Episode: 6
Download Links
     Torrent Download     Magnet Download
     Anonymous Download
Added 1 month ago by eztv (verified).
Tracker Statistics
Seeds: 0
Peers: 2
Stats generated @ 22:14 on 23rd Jul 2024
Torrent Info
Torrent File: Brigada Nimic S01E06 1080p WEB-DL AAC2 0 H 264-playWEB[EZTVx.to].mkv
Torrent Hash: 35758297238DC3DA044584BF1CE5AE1674E31C54
Filesize: 1.53 GB
Released: 29th May 2024

File Format: MKV (Matroska)
Resolution: 1920x1080 px
Aspect Ratio: 16:9
Alternate Releases S L
Brigada Nimic S01E06 720p WEB-DL AAC2 0 H 264-playWEB 0 2

Episode Description


Brigada Nimic S01E06 1080p WEB-DL AAC2 0 H 264-playWEB EZTV
Brigada Nimic S1E6 Screenshot


General
Unique ID: 337490866805573863359559725303080886579 (0xFDE6606B12B6DCD7997AF633358B2133)
Complete name: Brigada Nimic S01E06 1080p WEB-DL AAC2 0 H 264-playWEB.mkv
Format: Matroska
Format version: Version 4
File size: 1.53 GiB
Duration: 42 min 39 s
Overall bit rate mode: Variable
Overall bit rate: 5 131 kb/s
Frame rate: 25.000 FPS
Writing application: mkvmerge v84.0 ('Sleeper') 64-bit
Writing library: libebml v1.4.5 + libmatroska v1.7.1 / Lavf59.0.100

Video
ID: 1
Format: AVC
Format/Info: Advanced Video Codec
Format profile: Main@L4
Format settings: CABAC / 4 Ref Frames
Format settings, CABAC: Yes
Format settings, Reference frames: 4 frames
Codec ID: V_MPEG4/ISO/AVC
Duration: 42 min 39 s
Bit rate mode: Variable
Bit rate: 5 000 kb/s
Width: 1 920 pixels
Height: 1 080 pixels
Display aspect ratio: 16:9
Frame rate mode: Constant
Frame rate: 25.000 FPS
Color space: YUV
Chroma subsampling: 4:2:0
Bit depth: 8 bits
Scan type: Progressive
Bits/(Pixel*Frame): 0.096
Stream size: 1.49 GiB (97%)
Default: Yes
Forced: No
Color range: Limited
Color primaries: BT.709
Transfer characteristics: BT.709
Matrix coefficients: BT.709

Audio
ID: 2
Format: AAC LC
Format/Info: Advanced Audio Codec Low Complexity
Codec ID: A_AAC-2
Duration: 42 min 39 s
Bit rate: 128 kb/s
Channel(s): 2 channels
Channel layout: L R
Sampling rate: 44.1 kHz
Frame rate: 43.066 FPS (1024 SPF)
Compression mode: Lossy
Stream size: 39.0 MiB (2%)
Language: Romanian
Default: Yes
Forced: No
ssl  EZTV RSS EZTV Status | EZTV API | DMCA: [email protected]