eztv.wf | eztvstatus.org
Search title:  
TV Packs only
 

Ren Faire S01E01 Part 1 1080p MAX WEB-DL DDP5 1 H 264-NTb EZTV

Episode Breakdown
Ren Faire
Ren Faire TV Show S01E01

Season: 1
Episode: 1
Air Date: 2 June, 2024
Download Links
     Torrent Download     Magnet Download
     Anonymous Download
Added 1 month ago by eztv (verified).
Tracker Statistics
Seeds: 9
Peers: 3
Stats generated @ 00:12 on 24th Jul 2024
Torrent Info
Torrent File: Ren Faire S01E01 Part 1 1080p MAX WEB-DL DDP5 1 H 264-NTb[EZTVx.to].mkv
Torrent Hash: DEE7DD832D7C488055BB60E4858CA87E7F1E06D6
Filesize: 4.00 GB
Released: 4th Jun 2024

File Format: MKV (Matroska)
Resolution: 1920x1080 px
Aspect Ratio: 16:9
Alternate Releases S L
Ren Faire S01E01 1080p WEB h264-EDITH 4 1
Ren Faire S01E01 XviD-AFG 6 2
Ren Faire S01E01 1080p HEVC x265-MeGusta 54 3
Ren Faire S01E01 Part 1 720p MAX WEB-DL DDP5 1 H 264-NTb 6 1
Ren Faire S01E01 480p x264-RUBiK 2 0
Ren Faire S01E01 Daddys Dyin Whos Got the Will 1080p AMZN WEB-DL DDP5 1 H 264-NTb 7 3
Ren Faire S01E01 iNTERNAL 1080p WEB h264-EDITH 3 0

Ren Faire S01E01 - Daddy's Dyin', Who's Got The Will?

Summary:

Welcome to the Texas Renaissance Festival, the largest in the world. King George Coulam, its 86-year-old founder, has ruled over his subjects with an iron fist for decades. With his mental acuity in question and his retirement imminent, the future of the festival remains uncertain. General manager Jeff Baldwin believes he is next in line to succeed, until kettle-corn kingpin Louie Migliaccio hatches a plan to buy the festival outright.



Ren Faire S01E01 Part 1 1080p MAX WEB-DL DDP5 1 H 264-NTb EZTV
Ren Faire S1E1 Screenshot


General
Unique ID: 73402931704434658491478473246177418179 (0x3738E3F2675E510B0269908DD6FADBC3)
Complete name: Ren Faire S01E01 Part 1 1080p MAX WEB-DL DDP5 1 H 264-NTb.mkv
Format: Matroska
Format version: Version 4
File size: 4.00 GiB
Duration: 56 min 30 s
Overall bit rate mode: Variable
Overall bit rate: 10.1 Mb/s
Frame rate: 23.976 FPS
Writing application: mkvmerge v85.0 ('Shame For You') 64-bit
Writing library: libebml v1.4.5 + libmatroska v1.7.1

Video
ID: 1
Format: AVC
Format/Info: Advanced Video Codec
Format profile: [email protected]
Format settings: CABAC / 4 Ref Frames
Format settings, CABAC: Yes
Format settings, Reference frames: 4 frames
Codec ID: V_MPEG4/ISO/AVC
Duration: 56 min 30 s
Bit rate mode: Variable
Bit rate: 9 865 kb/s
Maximum bit rate: 10 000 kb/s
Width: 1 920 pixels
Height: 800 pixels
Display aspect ratio: 2.40:1
Frame rate mode: Constant
Frame rate: 23.976 (24000/1001) FPS
Color space: YUV
Chroma subsampling: 4:2:0
Bit depth: 8 bits
Scan type: Progressive
Bits/(Pixel*Frame): 0.268
Stream size: 3.89 GiB (97%)
Writing library: x264 core 164
Encoding settings: cabac=1 / ref=4 / deblock=1:0:0 / analyse=0x3:0x133 / me=umh / subme=10 / psy=1 / psy_rd=1.00:0.00 / mixed_ref=1 / me_range=24 / chroma_me=1 / trellis=2 / 8x8dct=1 / cqm=0 / deadzone=21,11 / fast_pskip=1 / chroma_qp_offset=-2 / threads=24 / lookahead_threads=2 / sliced_threads=0 / nr=0 / decimate=1 / interlaced=0 / bluray_compat=0 / stitchable=1 / constrained_intra=0 / bframes=3 / b_pyramid=2 / b_adapt=2 / b_bias=0 / direct=3 / weightb=1 / open_gop=0 / weightp=2 / keyint=96 / keyint_min=49 / scenecut=0 / intra_refresh=0 / rc_lookahead=96 / rc=crf / mbtree=1 / crf=20.0 / qcomp=0.60 / qpmin=0 / qpmax=69 / qpstep=4 / vbv_maxrate=10000 / vbv_bufsize=40000 / crf_max=0.0 / nal_hrd=vbr / filler=0 / ip_ratio=1.40 / aq=1:1.00
Default: Yes
Forced: No
Color range: Limited
Color primaries: BT.709
Transfer characteristics: BT.709
Matrix coefficients: BT.709

Audio
ID: 2
Format: E-AC-3
Format/Info: Enhanced AC-3
Commercial name: Dolby Digital Plus
Codec ID: A_EAC3
Duration: 56 min 30 s
Bit rate mode: Constant
Bit rate: 256 kb/s
Channel(s): 6 channels
Channel layout: L R C LFE Ls Rs
Sampling rate: 48.0 kHz
Frame rate: 31.250 FPS (1536 SPF)
Compression mode: Lossy
Stream size: 103 MiB (3%)
Language: English (US)
Service kind: Complete Main
Default: Yes
Forced: No

Text #1
ID: 3
Format: UTF-8
Codec ID: S_TEXT/UTF8
Codec ID/Info: UTF-8 Plain Text
Duration: 54 min 51 s
Bit rate: 90 b/s
Frame rate: 0.311 FPS
Count of elements: 1025
Stream size: 36.6 KiB (0%)
Language: English (US)
Default: No
Forced: No

Text #2
ID: 4
Format: UTF-8
Codec ID: S_TEXT/UTF8
Codec ID/Info: UTF-8 Plain Text
Duration: 56 min 4 s
Bit rate: 104 b/s
Frame rate: 0.348 FPS
Count of elements: 1172
Stream size: 42.8 KiB (0%)
Title: SDH
Language: English (US)
Default: No
Forced: No

Text #3
ID: 5
Format: UTF-8
Codec ID: S_TEXT/UTF8
Codec ID/Info: UTF-8 Plain Text
Duration: 54 min 51 s
Bit rate: 82 b/s
Frame rate: 0.319 FPS
Count of elements: 1049
Stream size: 33.3 KiB (0%)
Language: Spanish (Latin America)
Default: No
Forced: No

Text #4
ID: 6
Format: UTF-8
Codec ID: S_TEXT/UTF8
Codec ID/Info: UTF-8 Plain Text
Duration: 56 min 4 s
Bit rate: 95 b/s
Frame rate: 0.352 FPS
Count of elements: 1183
Stream size: 39.3 KiB (0%)
Title: SDH
Language: Spanish (Latin America)
Default: No
Forced: No

Menu
00:00:00.000: en:Chapter 1
00:10:03.978: en:Chapter 2
00:21:34.835: en:Chapter 3
00:33:14.701: en:Chapter 4
00:45:08.330: en:Chapter 5
00:55:26.948: en:Credits
00:56:13.161: en:Chapter 6
ssl  EZTV RSS EZTV Status | EZTV API | DMCA: [email protected]