eztv.wf | eztvstatus.org
Search title:  
TV Packs only
 

Dark Matter 2024 S01E06 Superposition 720p ATVP WEB-DL DDP5 1 H 264-NTb EZTV

Episode Breakdown
Dark Matter
Dark Matter TV Show S01E06

Season: 1
Episode: 6
Air Date: 5 June, 2024
Download Links
     Torrent Download     Magnet Download
     Anonymous Download
Added 1 month ago by eztv (verified).
Tracker Statistics
Seeds: 54
Peers: 7
Stats generated @ 14:32 on 19th Jul 2024
Torrent Info
Torrent File: Dark Matter 2024 S01E06 Superposition 720p ATVP WEB-DL DDP5 1 H 264-NTb[EZTVx.to].mkv
Torrent Hash: D681E1515E87ED3F4BBD6CE7E8A53426E021F491
Filesize: 1.40 GB
Released: 5th Jun 2024

File Format: MKV (Matroska)
Resolution: 1280x720 px
Aspect Ratio: 16:9
Alternate Releases S L
Dark Matter 2024 S01E06 1080p WEB H264-SuccessfulCrab 438 86
Dark Matter 2024 S01E06 Superposition 1080p ATVP WEB-DL DDP5 1 H 264-NTb 29 6
Dark Matter 2024 S01E06 MULTI 1080p WEB H264-HiggsBoson 5 2
Dark Matter 2024 S01E06 1080p x265-ELiTE 123 23
Dark Matter 2024 S01E06 720p x264-FENiX 65 5
Dark Matter 2024 S01E06 720p x265-T0PAZ 17 3
Dark Matter 2024 S01E06 XviD-AFG 29 5

Dark Matter S01E06 - Superposition

Summary:

Daniela suspects something's not right with her husband. Jason and Amanda grow closer.



Dark Matter 2024 S01E06 Superposition 720p ATVP WEB-DL DDP5 1 H 264-NTb EZTV
Dark Matter S1E6 Screenshot


General
Unique ID: 314951976111603013783070365517564744426 (0xECF18B4F9FEE51FE58E04696DADE12EA)
Complete name: Dark Matter 2024 S01E06 Superposition 720p ATVP WEB-DL DDP5 1 H 264-NTb.mkv
Format: Matroska
Format version: Version 4
File size: 1.40 GiB
Duration: 54 min 51 s
Overall bit rate: 3 652 kb/s
Frame rate: 23.976 FPS
Writing application: mkvmerge v84.0 ('Sleeper') 64-bit
Writing library: libebml v1.4.5 + libmatroska v1.7.1

Video
ID: 1
Format: AVC
Format/Info: Advanced Video Codec
Format profile: [email protected]
Format settings: CABAC / 5 Ref Frames
Format settings, CABAC: Yes
Format settings, Reference frames: 5 frames
Codec ID: V_MPEG4/ISO/AVC
Duration: 54 min 51 s
Bit rate: 2 878 kb/s
Width: 1 356 pixels
Height: 678 pixels
Display aspect ratio: 2.000
Frame rate mode: Constant
Frame rate: 23.976 (24000/1001) FPS
Color space: YUV
Chroma subsampling: 4:2:0
Bit depth: 8 bits
Scan type: Progressive
Bits/(Pixel*Frame): 0.131
Stream size: 1.10 GiB (79%)
Default: Yes
Forced: No
Color range: Limited
Color primaries: BT.709
Transfer characteristics: BT.709
Matrix coefficients: BT.709

Audio
ID: 2
Format: E-AC-3 JOC
Format/Info: Enhanced AC-3 with Joint Object Coding
Commercial name: Dolby Digital Plus with Dolby Atmos
Codec ID: A_EAC3
Duration: 54 min 51 s
Bit rate mode: Constant
Bit rate: 768 kb/s
Channel(s): 6 channels
Channel layout: L R C LFE Ls Rs
Sampling rate: 48.0 kHz
Frame rate: 31.250 FPS (1536 SPF)
Compression mode: Lossy
Stream size: 301 MiB (21%)
Language: English
Service kind: Complete Main
Default: Yes
Forced: No
Complexity index: 16
Number of dynamic objects: 15
Bed channel count: 1 channel
Bed channel configuration: LFE

Text #1
ID: 3
Format: UTF-8
Codec ID: S_TEXT/UTF8
Codec ID/Info: UTF-8 Plain Text
Duration: 52 min 18 s
Bit rate: 43 b/s
Frame rate: 0.173 FPS
Count of elements: 543
Stream size: 16.5 KiB (0%)
Language: English
Default: No
Forced: No

Text #2
ID: 4
Format: UTF-8
Codec ID: S_TEXT/UTF8
Codec ID/Info: UTF-8 Plain Text
Duration: 52 min 18 s
Bit rate: 48 b/s
Frame rate: 0.203 FPS
Count of elements: 637
Stream size: 18.5 KiB (0%)
Title: SDH
Language: English
Default: No
Forced: No

Text #3
ID: 5
Format: UTF-8
Codec ID: S_TEXT/UTF8
Codec ID/Info: UTF-8 Plain Text
Duration: 53 min 57 s
Bit rate: 58 b/s
Frame rate: 0.171 FPS
Count of elements: 554
Stream size: 23.3 KiB (0%)
Language: Arabic
Default: No
Forced: No

Text #4
ID: 6
Format: UTF-8
Codec ID: S_TEXT/UTF8
Codec ID/Info: UTF-8 Plain Text
Duration: 53 min 57 s
Bit rate: 65 b/s
Frame rate: 0.138 FPS
Count of elements: 446
Stream size: 25.9 KiB (0%)
Language: Bulgarian
Default: No
Forced: No

Text #5
ID: 7
Format: UTF-8
Codec ID: S_TEXT/UTF8
Codec ID/Info: UTF-8 Plain Text
Duration: 53 min 57 s
Bit rate: 38 b/s
Frame rate: 0.171 FPS
Count of elements: 555
Stream size: 15.4 KiB (0%)
Title: Chinese (Simplified)
Language: Mandarin (Hans)
Default: No
Forced: No

Text #6
ID: 8
Format: UTF-8
Codec ID: S_TEXT/UTF8
Codec ID/Info: UTF-8 Plain Text
Duration: 53 min 57 s
Bit rate: 36 b/s
Frame rate: 0.172 FPS
Count of elements: 556
Stream size: 14.5 KiB (0%)
Title: Chinese (Traditional)
Language: Mandarin (Hant)
Default: No
Forced: No

Text #7
ID: 9
Format: UTF-8
Codec ID: S_TEXT/UTF8
Codec ID/Info: UTF-8 Plain Text
Duration: 53 min 57 s
Bit rate: 39 b/s
Frame rate: 0.163 FPS
Count of elements: 527
Stream size: 15.5 KiB (0%)
Language: Czech
Default: No
Forced: No

Text #8
ID: 10
Format: UTF-8
Codec ID: S_TEXT/UTF8
Codec ID/Info: UTF-8 Plain Text
Duration: 53 min 57 s
Bit rate: 39 b/s
Frame rate: 0.145 FPS
Count of elements: 468
Stream size: 15.8 KiB (0%)
Language: Danish
Default: No
Forced: No

Text #9
ID: 11
Format: UTF-8
Codec ID: S_TEXT/UTF8
Codec ID/Info: UTF-8 Plain Text
Duration: 53 min 52 s
Bit rate: 40 b/s
Frame rate: 0.173 FPS
Count of elements: 558
Stream size: 15.9 KiB (0%)
Language: German
Default: No
Forced: No

Text #10
ID: 12
Format: UTF-8
Codec ID: S_TEXT/UTF8
Codec ID/Info: UTF-8 Plain Text
Duration: 53 min 57 s
Bit rate: 70 b/s
Frame rate: 0.160 FPS
Count of elements: 519
Stream size: 28.0 KiB (0%)
Language: Greek
Default: No
Forced: No

Text #11
ID: 13
Format: UTF-8
Codec ID: S_TEXT/UTF8
Codec ID/Info: UTF-8 Plain Text
Duration: 53 min 57 s
Bit rate: 40 b/s
Frame rate: 0.172 FPS
Count of elements: 556
Stream size: 16.1 KiB (0%)
Title: Spanish (Latin America)
Language: Spanish (Latin America)
Default: No
Forced: No

Text #12
ID: 14
Format: UTF-8
Codec ID: S_TEXT/UTF8
Codec ID/Info: UTF-8 Plain Text
Duration: 53 min 57 s
Bit rate: 41 b/s
Frame rate: 0.172 FPS
Count of elements: 558
Stream size: 16.3 KiB (0%)
Title: Spanish (Spain)
Language: Spanish (ES)
Default: No
Forced: No

Text #13
ID: 15
Format: UTF-8
Codec ID: S_TEXT/UTF8
Codec ID/Info: UTF-8 Plain Text
Duration: 53 min 57 s
Bit rate: 41 b/s
Frame rate: 0.169 FPS
Count of elements: 547
Stream size: 16.3 KiB (0%)
Language: Estonian
Default: No
Forced: No

Text #14
ID: 16
Format: UTF-8
Codec ID: S_TEXT/UTF8
Codec ID/Info: UTF-8 Plain Text
Duration: 53 min 57 s
Bit rate: 42 b/s
Frame rate: 0.170 FPS
Count of elements: 550
Stream size: 16.7 KiB (0%)
Language: Finnish
Default: No
Forced: No

Text #15
ID: 17
Format: UTF-8
Codec ID: S_TEXT/UTF8
Codec ID/Info: UTF-8 Plain Text
Duration: 53 min 57 s
Bit rate: 38 b/s
Frame rate: 0.181 FPS
Count of elements: 585
Stream size: 15.2 KiB (0%)
Title: French (Canada)
Language: French (CA)
Default: No
Forced: No

Text #16
ID: 18
Format: UTF-8
Codec ID: S_TEXT/UTF8
Codec ID/Info: UTF-8 Plain Text
Duration: 53 min 57 s
Bit rate: 38 b/s
Frame rate: 0.180 FPS
Count of elements: 584
Stream size: 15.2 KiB (0%)
Title: French (France)
Language: French (FR)
Default: No
Forced: No

Text #17
ID: 19
Format: UTF-8
Codec ID: S_TEXT/UTF8
Codec ID/Info: UTF-8 Plain Text
Duration: 53 min 57 s
Bit rate: 56 b/s
Frame rate: 0.171 FPS
Count of elements: 555
Stream size: 22.4 KiB (0%)
Language: Hebrew
Default: No
Forced: No

Text #18
ID: 20
Format: UTF-8
Codec ID: S_TEXT/UTF8
Codec ID/Info: UTF-8 Plain Text
Duration: 53 min 57 s
Bit rate: 115 b/s
Frame rate: 0.172 FPS
Count of elements: 556
Stream size: 45.8 KiB (0%)
Language: Hindi
Default: No
Forced: No

Text #19
ID: 21
Format: UTF-8
Codec ID: S_TEXT/UTF8
Codec ID/Info: UTF-8 Plain Text
Duration: 53 min 57 s
Bit rate: 40 b/s
Frame rate: 0.170 FPS
Count of elements: 550
Stream size: 16.2 KiB (0%)
Language: Hungarian
Default: No
Forced: No

Text #20
ID: 22
Format: UTF-8
Codec ID: S_TEXT/UTF8
Codec ID/Info: UTF-8 Plain Text
Duration: 53 min 57 s
Bit rate: 40 b/s
Frame rate: 0.170 FPS
Count of elements: 551
Stream size: 16.0 KiB (0%)
Language: Indonesian
Default: No
Forced: No

Text #21
ID: 23
Format: UTF-8
Codec ID: S_TEXT/UTF8
Codec ID/Info: UTF-8 Plain Text
Duration: 53 min 14 s
Bit rate: 39 b/s
Frame rate: 0.172 FPS
Count of elements: 549
Stream size: 15.6 KiB (0%)
Language: Italian
Default: No
Forced: No

Text #22
ID: 24
Format: UTF-8
Codec ID: S_TEXT/UTF8
Codec ID/Info: UTF-8 Plain Text
Duration: 53 min 57 s
Bit rate: 34 b/s
Frame rate: 0.171 FPS
Count of elements: 553
Stream size: 13.5 KiB (0%)
Language: Japanese
Default: No
Forced: No

Text #23
ID: 25
Format: UTF-8
Codec ID: S_TEXT/UTF8
Codec ID/Info: UTF-8 Plain Text
Duration: 53 min 57 s
Bit rate: 42 b/s
Frame rate: 0.171 FPS
Count of elements: 554
Stream size: 16.9 KiB (0%)
Language: Korean
Default: No
Forced: No

Text #24
ID: 26
Format: UTF-8
Codec ID: S_TEXT/UTF8
Codec ID/Info: UTF-8 Plain Text
Duration: 53 min 57 s
Bit rate: 41 b/s
Frame rate: 0.169 FPS
Count of elements: 546
Stream size: 16.4 KiB (0%)
Language: Lithuanian
Default: No
Forced: No

Text #25
ID: 27
Format: UTF-8
Codec ID: S_TEXT/UTF8
Codec ID/Info: UTF-8 Plain Text
Duration: 53 min 57 s
Bit rate: 43 b/s
Frame rate: 0.170 FPS
Count of elements: 551
Stream size: 17.1 KiB (0%)
Language: Latvian
Default: No
Forced: No

Text #26
ID: 28
Format: UTF-8
Codec ID: S_TEXT/UTF8
Codec ID/Info: UTF-8 Plain Text
Duration: 53 min 57 s
Bit rate: 40 b/s
Frame rate: 0.169 FPS
Count of elements: 548
Stream size: 15.8 KiB (0%)
Language: Malay
Default: No
Forced: No

Text #27
ID: 29
Format: UTF-8
Codec ID: S_TEXT/UTF8
Codec ID/Info: UTF-8 Plain Text
Duration: 53 min 57 s
Bit rate: 39 b/s
Frame rate: 0.127 FPS
Count of elements: 411
Stream size: 15.7 KiB (0%)
Language: Dutch
Default: No
Forced: No

Text #28
ID: 30
Format: UTF-8
Codec ID: S_TEXT/UTF8
Codec ID/Info: UTF-8 Plain Text
Duration: 53 min 57 s
Bit rate: 38 b/s
Frame rate: 0.160 FPS
Count of elements: 519
Stream size: 15.4 KiB (0%)
Language: Norwegian
Default: No
Forced: No

Text #29
ID: 31
Format: UTF-8
Codec ID: S_TEXT/UTF8
Codec ID/Info: UTF-8 Plain Text
Duration: 53 min 57 s
Bit rate: 41 b/s
Frame rate: 0.169 FPS
Count of elements: 548
Stream size: 16.5 KiB (0%)
Language: Polish
Default: No
Forced: No

Text #30
ID: 32
Format: UTF-8
Codec ID: S_TEXT/UTF8
Codec ID/Info: UTF-8 Plain Text
Duration: 53 min 57 s
Bit rate: 41 b/s
Frame rate: 0.168 FPS
Count of elements: 545
Stream size: 16.4 KiB (0%)
Title: Portuguese
Language: Portuguese
Default: No
Forced: No

Text #31
ID: 33
Format: UTF-8
Codec ID: S_TEXT/UTF8
Codec ID/Info: UTF-8 Plain Text
Duration: 53 min 57 s
Bit rate: 40 b/s
Frame rate: 0.163 FPS
Count of elements: 529
Stream size: 15.8 KiB (0%)
Title: Portuguese (Brazil)
Language: Portuguese (BR)
Default: No
Forced: No

Text #32
ID: 34
Format: UTF-8
Codec ID: S_TEXT/UTF8
Codec ID/Info: UTF-8 Plain Text
Duration: 53 min 57 s
Bit rate: 65 b/s
Frame rate: 0.171 FPS
Count of elements: 554
Stream size: 25.8 KiB (0%)
Language: Russian
Default: No
Forced: No

Text #33
ID: 35
Format: UTF-8
Codec ID: S_TEXT/UTF8
Codec ID/Info: UTF-8 Plain Text
Duration: 53 min 57 s
Bit rate: 39 b/s
Frame rate: 0.169 FPS
Count of elements: 546
Stream size: 15.8 KiB (0%)
Language: Slovak
Default: No
Forced: No

Text #34
ID: 36
Format: UTF-8
Codec ID: S_TEXT/UTF8
Codec ID/Info: UTF-8 Plain Text
Duration: 53 min 57 s
Bit rate: 33 b/s
Frame rate: 0.148 FPS
Count of elements: 480
Stream size: 13.3 KiB (0%)
Language: Slovenian
Default: No
Forced: No

Text #35
ID: 37
Format: UTF-8
Codec ID: S_TEXT/UTF8
Codec ID/Info: UTF-8 Plain Text
Duration: 53 min 57 s
Bit rate: 41 b/s
Frame rate: 0.164 FPS
Count of elements: 531
Stream size: 16.5 KiB (0%)
Language: Swedish
Default: No
Forced: No

Text #36
ID: 38
Format: UTF-8
Codec ID: S_TEXT/UTF8
Codec ID/Info: UTF-8 Plain Text
Duration: 53 min 57 s
Bit rate: 143 b/s
Frame rate: 0.171 FPS
Count of elements: 555
Stream size: 56.6 KiB (0%)
Language: Tamil
Default: No
Forced: No

Text #37
ID: 39
Format: UTF-8
Codec ID: S_TEXT/UTF8
Codec ID/Info: UTF-8 Plain Text
Duration: 53 min 57 s
Bit rate: 133 b/s
Frame rate: 0.171 FPS
Count of elements: 555
Stream size: 52.6 KiB (0%)
Language: Telugu
Default: No
Forced: No

Text #38
ID: 40
Format: UTF-8
Codec ID: S_TEXT/UTF8
Codec ID/Info: UTF-8 Plain Text
Duration: 53 min 57 s
Bit rate: 101 b/s
Frame rate: 0.171 FPS
Count of elements: 555
Stream size: 40.3 KiB (0%)
Language: Thai
Default: No
Forced: No

Text #39
ID: 41
Format: UTF-8
Codec ID: S_TEXT/UTF8
Codec ID/Info: UTF-8 Plain Text
Duration: 53 min 57 s
Bit rate: 42 b/s
Frame rate: 0.165 FPS
Count of elements: 533
Stream size: 17.0 KiB (0%)
Language: Turkish
Default: No
Forced: No

Text #40
ID: 42
Format: UTF-8
Codec ID: S_TEXT/UTF8
Codec ID/Info: UTF-8 Plain Text
Duration: 53 min 57 s
Bit rate: 64 b/s
Frame rate: 0.171 FPS
Count of elements: 553
Stream size: 25.4 KiB (0%)
Language: Ukrainian
Default: No
Forced: No

Text #41
ID: 43
Format: UTF-8
Codec ID: S_TEXT/UTF8
Codec ID/Info: UTF-8 Plain Text
Duration: 53 min 57 s
Bit rate: 53 b/s
Frame rate: 0.171 FPS
Count of elements: 553
Stream size: 21.2 KiB (0%)
Language: Vietnamese
Default: No
Forced: No

Text #42
ID: 44
Format: UTF-8
Codec ID: S_TEXT/UTF8
Codec ID/Info: UTF-8 Plain Text
Duration: 53 min 57 s
Bit rate: 36 b/s
Frame rate: 0.172 FPS
Count of elements: 556
Stream size: 14.4 KiB (0%)
Title: Cantonese (Traditional)
Language: Cantonese (Hant)
Default: No
Forced: No

Menu
00:00:00.000: en:Chapter 1
00:09:47.000: en:Intro
00:10:39.458: en:Chapter 2
ssl  EZTV RSS EZTV Status | EZTV API | DMCA: [email protected]