eztv.wf | eztvstatus.org
Search title:  
TV Packs only
 

Unexpected S06E01 Were the Kids in America 1080p MAX WEB-DL DDP2 0 H 264-NTb EZTV

Episode Breakdown
The Hobbit: An Unexpected Journey
The Hobbit: An Unexpected Journey TV Show S06E01

Season: 6
Episode: 1
Download Links
     Torrent Download     Magnet Download
     Anonymous Download
Added 1 month ago by eztv (verified).
Tracker Statistics
Seeds: 0
Peers: 1
Stats generated @ 07:29 on 23rd Jul 2024
Torrent Info
Torrent File: Unexpected S06E01 Were the Kids in America 1080p MAX WEB-DL DDP2 0 H 264-NTb[EZTVx.to].mkv
Torrent Hash: 6EC10F014D4500D47D6C6069106743545C715D72
Filesize: 2.29 GB
Released: 5th Jun 2024

File Format: MKV (Matroska)
Resolution: 1920x1080 px
Aspect Ratio: 16:9
Alternate Releases S L
Unexpected S06E01 1080p WEB h264-FREQUENCY 5 2
Unexpected S06E01 We are the kids in America HDTV x264-CRiMSON 0 1
Unexpected S06E01 We are the kids in America 720p HDTV x264-CRiMSON 2 1
Unexpected S06E01 We are the kids in America 480p x264-mSD 2 0
Unexpected S06E01 XviD-AFG 1 1
Unexpected S06E01 We are the kids in America XviD-AFG 0 1
Unexpected S06E01 Were the Kids in America 720p MAX WEB-DL DDP2 0 H 264-NTb 0 1

Episode Description
Unexpected S06E01 Were the Kids in America 1080p MAX WEB-DL DDP2 0 H 264-NTb EZTV
The Hobbit: An Unexpected Journey S6E1 Screenshot


General
Unique ID: 45024347251177535897009366969308175402 (0x21DF5FB545D5430E4B4F027FCD005C2A)
Complete name: Unexpected S06E01 Were the Kids in America 1080p MAX WEB-DL DDP2 0 H 264-NTb.mkv
Format: Matroska
Format version: Version 4
File size: 2.29 GiB
Duration: 44 min 1 s
Overall bit rate mode: Variable
Overall bit rate: 7 460 kb/s
Frame rate: 29.970 FPS
Writing application: mkvmerge v85.0 ('Shame For You') 64-bit
Writing library: libebml v1.4.5 + libmatroska v1.7.1

Video
ID: 1
Format: AVC
Format/Info: Advanced Video Codec
Format profile: [email protected]
Format settings: CABAC / 4 Ref Frames
Format settings, CABAC: Yes
Format settings, Reference frames: 4 frames
Codec ID: V_MPEG4/ISO/AVC
Duration: 44 min 1 s
Bit rate mode: Variable
Bit rate: 7 330 kb/s
Maximum bit rate: 10 000 kb/s
Width: 1 920 pixels
Height: 1 080 pixels
Display aspect ratio: 16:9
Frame rate mode: Constant
Frame rate: 29.970 (30000/1001) FPS
Color space: YUV
Chroma subsampling: 4:2:0
Bit depth: 8 bits
Scan type: Progressive
Bits/(Pixel*Frame): 0.118
Stream size: 2.25 GiB (98%)
Writing library: x264 core 164
Encoding settings: cabac=1 / ref=4 / deblock=1:0:0 / analyse=0x3:0x133 / me=umh / subme=10 / psy=1 / psy_rd=1.00:0.00 / mixed_ref=1 / me_range=24 / chroma_me=1 / trellis=2 / 8x8dct=1 / cqm=0 / deadzone=21,11 / fast_pskip=1 / chroma_qp_offset=-2 / threads=24 / lookahead_threads=2 / sliced_threads=0 / nr=0 / decimate=1 / interlaced=0 / bluray_compat=0 / stitchable=1 / constrained_intra=0 / bframes=3 / b_pyramid=2 / b_adapt=2 / b_bias=0 / direct=3 / weightb=1 / open_gop=0 / weightp=2 / keyint=120 / keyint_min=61 / scenecut=0 / intra_refresh=0 / rc_lookahead=120 / rc=crf / mbtree=1 / crf=20.0 / qcomp=0.60 / qpmin=0 / qpmax=69 / qpstep=4 / vbv_maxrate=10000 / vbv_bufsize=40000 / crf_max=0.0 / nal_hrd=vbr / filler=0 / ip_ratio=1.40 / aq=1:1.00
Default: Yes
Forced: No
Color range: Limited
Color primaries: BT.709
Transfer characteristics: BT.709
Matrix coefficients: BT.709

Audio
ID: 2
Format: E-AC-3
Format/Info: Enhanced AC-3
Commercial name: Dolby Digital Plus
Codec ID: A_EAC3
Duration: 44 min 1 s
Bit rate mode: Constant
Bit rate: 128 kb/s
Channel(s): 2 channels
Channel layout: L R
Sampling rate: 48.0 kHz
Frame rate: 31.250 FPS (1536 SPF)
Compression mode: Lossy
Stream size: 40.3 MiB (2%)
Language: English (US)
Service kind: Complete Main
Default: Yes
Forced: No

Text #1
ID: 3
Format: UTF-8
Codec ID: S_TEXT/UTF8
Codec ID/Info: UTF-8 Plain Text
Duration: 43 min 59 s
Bit rate: 104 b/s
Frame rate: 0.357 FPS
Count of elements: 942
Stream size: 33.7 KiB (0%)
Language: English (US)
Default: No
Forced: No

Text #2
ID: 4
Format: UTF-8
Codec ID: S_TEXT/UTF8
Codec ID/Info: UTF-8 Plain Text
Duration: 43 min 59 s
Bit rate: 113 b/s
Frame rate: 0.379 FPS
Count of elements: 1000
Stream size: 36.7 KiB (0%)
Title: SDH
Language: English (US)
Default: No
Forced: No

Menu
00:00:00.000: en:Chapter 1
00:15:52.251: en:Chapter 2
00:24:02.073: en:Chapter 3
00:30:05.103: en:Chapter 4
00:36:58.482: en:Chapter 5
ssl  EZTV RSS EZTV Status | EZTV API | DMCA: [email protected]