eztv.wf | eztvstatus.org
Search title:  
TV Packs only
 

Inside No 9 S09E05 Curse of the Ninth 1080p iP WEB-DL AAC2 0 H 264-playWEB EZTV

Episode Breakdown
Inside No 9
Inside No 9 TV Show S09E05

Season: 9
Episode: 5
Air Date: 5 June, 2024
Download Links
     Torrent Download     Magnet Download
     Anonymous Download
Added 19 days ago by eztv (verified).
Tracker Statistics
Seeds: 192
Peers: 10
Stats generated @ 07:17 on 25th Jun 2024
Torrent Info
Torrent File: Inside No 9 S09E05 Curse of the Ninth 1080p iP WEB-DL AAC2 0 H 264-playWEB[EZTVx.to].mkv
Torrent Hash: 23519FBBAF61ABEA5900A37346BDECA08A7C0DC4
Filesize: 647 MB
Released: 6th Jun 2024

File Format: MKV (Matroska)
Resolution: 1920x1080 px
Aspect Ratio: 16:9

Inside No 9 S09E05 - Curse of the Ninth

Summary:

An Edwardian chiller, where a talented piano-tuner is forced to confront the power of a centuries-old curse by the owners and servants of a large country house.



Inside No 9 S09E05 Curse of the Ninth 1080p iP WEB-DL AAC2 0 H 264-playWEB EZTV
Inside No 9 S9E5 Screenshot


General
Unique ID: 123605306769805167223403326381007252430 (0x5CFD8423044C56353391FD4A9BF72BCE)
Complete name: Inside No 9 S09E05 Curse of the Ninth 1080p iP WEB-DL AAC2 0 H 264-playWEB.mkv
Format: Matroska
Format version: Version 4
File size: 647 MiB
Duration: 29 min 16 s
Overall bit rate mode: Variable
Overall bit rate: 3 090 kb/s
Frame rate: 50.000 FPS
Writing application: mkvmerge v84.0 ('Sleeper') 64-bit
Writing library: libebml v1.4.5 + libmatroska v1.7.1

Video
ID: 1
Format: AVC
Format/Info: Advanced Video Codec
Format profile: [email protected]
Format settings: CABAC / 4 Ref Frames
Format settings, CABAC: Yes
Format settings, Reference frames: 4 frames
Codec ID: V_MPEG4/ISO/AVC
Duration: 29 min 16 s
Bit rate mode: Variable
Bit rate: 2 958 kb/s
Maximum bit rate: 12.0 Mb/s
Width: 1 920 pixels
Height: 1 080 pixels
Display aspect ratio: 16:9
Frame rate mode: Constant
Frame rate: 50.000 FPS
Color space: YUV
Chroma subsampling: 4:2:0
Bit depth: 8 bits
Scan type: Progressive
Bits/(Pixel*Frame): 0.029
Stream size: 619 MiB (96%)
Language: English
Default: Yes
Forced: No
Color range: Limited
Color primaries: BT.709
Transfer characteristics: BT.709
Matrix coefficients: BT.709

Audio
ID: 2
Format: AAC LC
Format/Info: Advanced Audio Codec Low Complexity
Codec ID: A_AAC-2
Duration: 29 min 16 s
Bit rate: 128 kb/s
Channel(s): 2 channels
Channel layout: L R
Sampling rate: 48.0 kHz
Frame rate: 46.875 FPS (1024 SPF)
Compression mode: Lossy
Stream size: 26.8 MiB (4%)
Language: English
Default: Yes
Forced: No

Text #1
ID: 3
Format: UTF-8
Codec ID: S_TEXT/UTF8
Codec ID/Info: UTF-8 Plain Text
Duration: 28 min 36 s
Bit rate: 65 b/s
Frame rate: 0.288 FPS
Count of elements: 495
Stream size: 13.7 KiB (0%)
Language: English
Default: No
Forced: No

Text #2
ID: 4
Format: UTF-8
Codec ID: S_TEXT/UTF8
Codec ID/Info: UTF-8 Plain Text
Duration: 28 min 36 s
Bit rate: 65 b/s
Frame rate: 0.288 FPS
Count of elements: 495
Stream size: 13.8 KiB (0%)
Title: SDH
Language: English
Default: No
Forced: No
ssl  EZTV RSS EZTV Status | EZTV API | DMCA: [email protected]