eztv.wf | eztvstatus.org
Search title:  
TV Packs only
 

Lost in the Shadows S01E03 2024 1080p WEB-DL H264 AAC-HHWEB EZTV

Episode Breakdown
Lost in the Shadows
Lost in the Shadows TV Show S01E03

Season: 1
Episode: 3
Air Date: 6 June, 2024
Download Links
     Torrent Download     Magnet Download
     Anonymous Download
Added 1 month ago by eztv (verified).
Tracker Statistics
Seeds: 6
Peers: 2
Stats generated @ 07:06 on 23rd Jul 2024
Torrent Info
Torrent File: Lost.in.the.Shadows.S01E03.2024.1080p.WEB-DL.H264.AAC-HHWEB[EZTVx.to].mkv
Torrent Hash: 5D1EF2F7CFFAE4E19A11E94C012C004854903B1C
Filesize: 660 MB
Released: 6th Jun 2024

File Format: MKV (Matroska)
Resolution: 1920x1080 px
Aspect Ratio: 16:9

Lost in the Shadows S01E03 - Episode 3

Summary:
Lost in the Shadows S01E03 2024 1080p WEB-DL H264 AAC-HHWEB EZTV
Lost in the Shadows S1E3 Screenshot


General
Unique ID: 93807897276984946387973434374302835151 (0x4692BE6C346FE79FE6DD065BDBE5A1CF)
Complete name: Lost.in.the.Shadows.S01E03.2024.1080p.WEB-DL.H264.AAC-HHWEB.mkv
Format: Matroska
Format version: Version 4
File size: 660 MiB
Duration: 46 min 48 s
Overall bit rate: 1 973 kb/s
Frame rate: 25.000 FPS
Encoded date: 2024-06-06 10:54:41 UTC
Writing application: mkvmerge v78.0 ('Running') 64-bit
Writing library: libebml v1.4.4 + libmatroska v1.7.1 / Lavf60.10.100

Video
ID: 1
Format: AVC
Format/Info: Advanced Video Codec
Format profile: High@L4
Format settings: CABAC / 3 Ref Frames
Format settings, CABAC: Yes
Format settings, Reference frames: 3 frames
Codec ID: V_MPEG4/ISO/AVC
Duration: 46 min 48 s
Bit rate: 1 779 kb/s
Width: 1 920 pixels
Height: 800 pixels
Display aspect ratio: 2.40:1
Frame rate mode: Constant
Frame rate: 25.000 FPS
Color space: YUV
Chroma subsampling: 4:2:0
Bit depth: 8 bits
Scan type: Progressive
Bits/(Pixel*Frame): 0.046
Stream size: 595 MiB (90%)
Language: Chinese (CH)
Default: Yes
Forced: No
Color range: Limited
Color primaries: BT.709
Transfer characteristics: BT.709
Matrix coefficients: BT.709

Audio
ID: 2
Format: AAC LC
Format/Info: Advanced Audio Codec Low Complexity
Codec ID: A_AAC-2
Duration: 46 min 48 s
Bit rate: 192 kb/s
Channel(s): 2 channels
Channel layout: L R
Sampling rate: 44.1 kHz
Frame rate: 43.066 FPS (1024 SPF)
Compression mode: Lossy
Stream size: 64.3 MiB (10%)
Default: No
Forced: No
ssl  EZTV RSS EZTV Status | EZTV API | DMCA: [email protected]