eztv.wf | eztvstatus.org
Search title:  
TV Packs only
 

Fantasmas S01E01 Cookies and Spaghetti 1080p AMZN WEB-DL DDP5 1 H 264-FLUX EZTV

Episode Breakdown
Fantasmas
Fantasmas TV Show S01E01

Season: 1
Episode: 1
Air Date: 7 June, 2024
Download Links
     Torrent Download     Magnet Download
     Anonymous Download
Added 1 month ago by eztv (verified).
Tracker Statistics
Seeds: 18
Peers: 11
Stats generated @ 08:44 on 23rd Jul 2024
Torrent Info
Torrent File: Fantasmas S01E01 Cookies and Spaghetti 1080p AMZN WEB-DL DDP5 1 H 264-FLUX[EZTVx.to].mkv
Torrent Hash: 75A02136DD086E0E91CDF7D276487A8B41E9AE43
Filesize: 2.04 GB
Released: 8th Jun 2024

File Format: MKV (Matroska)
Resolution: 1920x1080 px
Aspect Ratio: 16:9
Alternate Releases S L
Fantasmas S01E01 1080p WEB H264-SuccessfulCrab 53 22
Fantasmas S01E01 1080p HEVC x265-MeGusta 27 12
Fantasmas S01E01 Cookies and Spaghetti 720p AMZN WEB-DL DDP5 1 H 264-FLUX 5 10
Fantasmas S01E01 XviD-AFG 0 11
Fantasmas S01E01 480p x264-RUBiK 3 11
Fantasmas S01E01 MULTi 1080p WEB H264-AMB3R 0 12

Fantasmas S01E01 - Cookies and Spaghetti

Summary:

While ignoring his landlord's urgent letters, Julio obtains a gold oyster earring… then promptly loses it at the club. Later, Julio explains his sensitivity to shapes, colors, numbers, and the alphabet to his fellow rideshare passengers.



Fantasmas S01E01 Cookies and Spaghetti 1080p AMZN WEB-DL DDP5 1 H 264-FLUX EZTV
Fantasmas S1E1 Screenshot


General
Unique ID: 46700205428214651032028623576725738045 (0x232221E53FEED2B8C7BD2AE58E50523D)
Complete name: Fantasmas S01E01 Cookies and Spaghetti 1080p AMZN WEB-DL DDP5 1 H 264-FLUX.mkv
Format: Matroska
Format version: Version 4
File size: 2.04 GiB
Duration: 28 min 51 s
Overall bit rate: 10.1 Mb/s
Frame rate: 23.976 FPS
Writing application: mkvmerge v79.0 ('Funeral Pyres') 64-bit
Writing library: libebml v1.4.4 + libmatroska v1.7.1

Video
ID: 1
Format: AVC
Format/Info: Advanced Video Codec
Format profile: High@L4
Format settings: CABAC / 4 Ref Frames
Format settings, CABAC: Yes
Format settings, Reference frames: 4 frames
Codec ID: V_MPEG4/ISO/AVC
Duration: 28 min 51 s
Bit rate mode: Constant
Bit rate: 9 486 kb/s
Nominal bit rate: 10 000 kb/s
Width: 1 920 pixels
Height: 1 080 pixels
Display aspect ratio: 16:9
Frame rate mode: Constant
Frame rate: 23.976 (24000/1001) FPS
Color space: YUV
Chroma subsampling: 4:2:0
Bit depth: 8 bits
Scan type: Progressive
Bits/(Pixel*Frame): 0.191
Stream size: 1.91 GiB (94%)
Language: English (US)
Default: Yes
Forced: No
Color range: Limited
Color primaries: BT.709
Transfer characteristics: BT.709
Matrix coefficients: BT.709

Audio
ID: 2
Format: E-AC-3
Format/Info: Enhanced AC-3
Commercial name: Dolby Digital Plus
Codec ID: A_EAC3
Duration: 28 min 51 s
Bit rate mode: Constant
Bit rate: 640 kb/s
Channel(s): 6 channels
Channel layout: L R C LFE Ls Rs
Sampling rate: 48.0 kHz
Frame rate: 31.250 FPS (1536 SPF)
Compression mode: Lossy
Stream size: 132 MiB (6%)
Language: English (US)
Service kind: Complete Main
Default: Yes
Forced: No

Text #1
ID: 3
Format: UTF-8
Codec ID: S_TEXT/UTF8
Codec ID/Info: UTF-8 Plain Text
Duration: 26 min 31 s
Bit rate: 92 b/s
Frame rate: 0.411 FPS
Count of elements: 654
Stream size: 17.9 KiB (0%)
Language: English (US)
Default: No
Forced: No

Text #2
ID: 4
Format: UTF-8
Codec ID: S_TEXT/UTF8
Codec ID/Info: UTF-8 Plain Text
Duration: 28 min 49 s
Bit rate: 93 b/s
Frame rate: 0.437 FPS
Count of elements: 756
Stream size: 19.8 KiB (0%)
Title: SDH
Language: English (US)
Default: No
Forced: No

Text #3
ID: 5
Format: UTF-8
Codec ID: S_TEXT/UTF8
Codec ID/Info: UTF-8 Plain Text
Duration: 28 min 26 s
Bit rate: 134 b/s
Frame rate: 0.274 FPS
Count of elements: 468
Stream size: 28.1 KiB (0%)
Language: Bulgarian (BG)
Default: No
Forced: No

Text #4
ID: 6
Format: UTF-8
Codec ID: S_TEXT/UTF8
Codec ID/Info: UTF-8 Plain Text
Duration: 28 min 26 s
Bit rate: 80 b/s
Frame rate: 0.273 FPS
Count of elements: 466
Stream size: 16.8 KiB (0%)
Language: Czech (CZ)
Default: No
Forced: No

Text #5
ID: 7
Format: UTF-8
Codec ID: S_TEXT/UTF8
Codec ID/Info: UTF-8 Plain Text
Duration: 28 min 26 s
Bit rate: 85 b/s
Frame rate: 0.274 FPS
Count of elements: 467
Stream size: 17.9 KiB (0%)
Language: Danish (DK)
Default: No
Forced: No

Text #6
ID: 8
Format: UTF-8
Codec ID: S_TEXT/UTF8
Codec ID/Info: UTF-8 Plain Text
Duration: 28 min 2 s
Bit rate: 77 b/s
Frame rate: 0.249 FPS
Count of elements: 419
Stream size: 15.9 KiB (0%)
Title: Latin American
Language: Spanish (Latin America)
Default: No
Forced: No

Text #7
ID: 9
Format: UTF-8
Codec ID: S_TEXT/UTF8
Codec ID/Info: UTF-8 Plain Text
Duration: 28 min 25 s
Bit rate: 73 b/s
Frame rate: 0.274 FPS
Count of elements: 467
Stream size: 15.3 KiB (0%)
Title: Estonia
Language: Estonian (EE)
Default: No
Forced: No

Text #8
ID: 10
Format: UTF-8
Codec ID: S_TEXT/UTF8
Codec ID/Info: UTF-8 Plain Text
Duration: 28 min 26 s
Bit rate: 79 b/s
Frame rate: 0.267 FPS
Count of elements: 456
Stream size: 16.6 KiB (0%)
Language: Finnish (FI)
Default: No
Forced: No

Text #9
ID: 11
Format: UTF-8
Codec ID: S_TEXT/UTF8
Codec ID/Info: UTF-8 Plain Text
Duration: 27 min 45 s
Bit rate: 75 b/s
Frame rate: 0.314 FPS
Count of elements: 523
Stream size: 15.3 KiB (0%)
Language: French (FR)
Default: No
Forced: No

Text #10
ID: 12
Format: UTF-8
Codec ID: S_TEXT/UTF8
Codec ID/Info: UTF-8 Plain Text
Duration: 28 min 26 s
Bit rate: 73 b/s
Frame rate: 0.274 FPS
Count of elements: 467
Stream size: 15.4 KiB (0%)
Language: Croatian (HR)
Default: No
Forced: No

Text #11
ID: 13
Format: UTF-8
Codec ID: S_TEXT/UTF8
Codec ID/Info: UTF-8 Plain Text
Duration: 28 min 26 s
Bit rate: 75 b/s
Frame rate: 0.273 FPS
Count of elements: 466
Stream size: 15.8 KiB (0%)
Language: Hungarian (HU)
Default: No
Forced: No

Text #12
ID: 14
Format: UTF-8
Codec ID: S_TEXT/UTF8
Codec ID/Info: UTF-8 Plain Text
Duration: 28 min 25 s
Bit rate: 80 b/s
Frame rate: 0.274 FPS
Count of elements: 468
Stream size: 16.8 KiB (0%)
Language: Lithuanian (LT)
Default: No
Forced: No

Text #13
ID: 15
Format: UTF-8
Codec ID: S_TEXT/UTF8
Codec ID/Info: UTF-8 Plain Text
Duration: 28 min 26 s
Bit rate: 82 b/s
Frame rate: 0.275 FPS
Count of elements: 469
Stream size: 17.1 KiB (0%)
Language: Latvian (LV)
Default: No
Forced: No

Text #14
ID: 16
Format: UTF-8
Codec ID: S_TEXT/UTF8
Codec ID/Info: UTF-8 Plain Text
Duration: 28 min 26 s
Bit rate: 130 b/s
Frame rate: 0.274 FPS
Count of elements: 468
Stream size: 27.1 KiB (0%)
Language: Macedonian (MK)
Default: No
Forced: No

Text #15
ID: 17
Format: UTF-8
Codec ID: S_TEXT/UTF8
Codec ID/Info: UTF-8 Plain Text
Duration: 28 min 26 s
Bit rate: 80 b/s
Frame rate: 0.273 FPS
Count of elements: 466
Stream size: 16.8 KiB (0%)
Language: Norwegian Bokmal (NO)
Default: No
Forced: No

Text #16
ID: 18
Format: UTF-8
Codec ID: S_TEXT/UTF8
Codec ID/Info: UTF-8 Plain Text
Duration: 28 min 26 s
Bit rate: 72 b/s
Frame rate: 0.258 FPS
Count of elements: 440
Stream size: 15.0 KiB (0%)
Language: Dutch (NL)
Default: No
Forced: No

Text #17
ID: 19
Format: UTF-8
Codec ID: S_TEXT/UTF8
Codec ID/Info: UTF-8 Plain Text
Duration: 28 min 26 s
Bit rate: 59 b/s
Frame rate: 0.264 FPS
Count of elements: 450
Stream size: 12.4 KiB (0%)
Language: Polish (PL)
Default: No
Forced: No

Text #18
ID: 20
Format: UTF-8
Codec ID: S_TEXT/UTF8
Codec ID/Info: UTF-8 Plain Text
Duration: 28 min 2 s
Bit rate: 73 b/s
Frame rate: 0.248 FPS
Count of elements: 417
Stream size: 15.0 KiB (0%)
Title: Brazilian
Language: Portuguese (BR)
Default: No
Forced: No

Text #19
ID: 21
Format: UTF-8
Codec ID: S_TEXT/UTF8
Codec ID/Info: UTF-8 Plain Text
Duration: 26 min 57 s
Bit rate: 85 b/s
Frame rate: 0.284 FPS
Count of elements: 459
Stream size: 16.9 KiB (0%)
Language: Romanian (RO)
Default: No
Forced: No

Text #20
ID: 22
Format: UTF-8
Codec ID: S_TEXT/UTF8
Codec ID/Info: UTF-8 Plain Text
Duration: 28 min 25 s
Bit rate: 75 b/s
Frame rate: 0.273 FPS
Count of elements: 466
Stream size: 15.8 KiB (0%)
Language: Slovak (SK)
Default: No
Forced: No

Text #21
ID: 23
Format: UTF-8
Codec ID: S_TEXT/UTF8
Codec ID/Info: UTF-8 Plain Text
Duration: 28 min 26 s
Bit rate: 67 b/s
Frame rate: 0.272 FPS
Count of elements: 465
Stream size: 14.0 KiB (0%)
Language: Slovenian (SI)
Default: No
Forced: No

Text #22
ID: 24
Format: UTF-8
Codec ID: S_TEXT/UTF8
Codec ID/Info: UTF-8 Plain Text
Duration: 28 min 26 s
Bit rate: 80 b/s
Frame rate: 0.274 FPS
Count of elements: 467
Stream size: 16.7 KiB (0%)
Language: Serbian (RS)
Default: No
Forced: No

Text #23
ID: 25
Format: UTF-8
Codec ID: S_TEXT/UTF8
Codec ID/Info: UTF-8 Plain Text
Duration: 28 min 26 s
Bit rate: 79 b/s
Frame rate: 0.262 FPS
Count of elements: 448
Stream size: 16.7 KiB (0%)
Language: Swedish (SE)
Default: No
Forced: No

Menu
00:00:00.000: en:Scene 1
00:28:46.000: en:Outro
ssl  EZTV RSS EZTV Status | EZTV API | DMCA: [email protected]