eztv.wf | eztvstatus.org
Search title:  
TV Packs only
 

Interview with the Vampire S02E05 720p x264-FENiX EZTV

Episode Breakdown
Interview with the Vampire
Interview with the Vampire TV Show S02E05

Season: 2
Episode: 5
Air Date: 9 June, 2024
Download Links
     Torrent Download     Magnet Download
     Anonymous Download
Added 1 month ago by eztv (verified).
Tracker Statistics
Seeds: 9
Peers: 3
Stats generated @ 07:54 on 23rd Jul 2024
Torrent Info
Torrent File: Interview with the Vampire S02E05 720p x264-FENiX[EZTVx.to].mkv
Torrent Hash: 39AA5B926BA4B63D8435115283C076E5D743FD23
Filesize: 509 MB
Released: 9th Jun 2024

File Format: MKV (Matroska)
Resolution: 1280x720 px
Aspect Ratio: 16:9
Alternate Releases S L
Interview with the Vampire S02E05 1080p WEB H264-SuccessfulCrab 91 25
Interview with the Vampire S02E05 1080p HEVC x265-MeGusta 83 15
Interview with the Vampire S02E05 XviD-AFG 7 1
Interview with the Vampire S02E05 1080p x265-ELiTE 12 1
Interview with the Vampire S02E05 720p x265-T0PAZ 3 4
Interview with the Vampire S02E05 480p x264-RUBiK 4 2
Interview with the Vampire S02E05 Dont be afraid just start the tape 1080p AMZN WEB-DL DDP5 1 H 264-MADSKY 30 7

Interview with the Vampire S02E05 - Don't Be Afraid, Just Start the Tape

Summary:

With Louis's help, Molloy delves into a haunted memory of his own.



Interview with the Vampire S02E05 720p x264-FENiX EZTV
Interview with the Vampire S2E5 Screenshot


General
Unique ID: 267368598014669325775439799131350514957 (0xC92551A41ED26457E63742A222883D0D)
Complete name: Interview with the Vampire S02E05 720p x264-FENiX.mkv
Format: Matroska
Format version: Version 4
File size: 509 MiB
Duration: 58 min 22 s
Overall bit rate: 1 220 kb/s
Frame rate: 23.976 FPS
Movie name: Interview.with.the.Vampire.S02E05
Writing application: Lavf60.16.100
Writing library: Lavf60.16.100
Comment: FENiX-Sun-09-Jun-2024,08:21:34,720p,22,fast,N,5695895,1920,1080,1.78
ErrorDetectionType: Per level 1

Video
ID: 1
Format: AVC
Format/Info: Advanced Video Codec
Format profile: [email protected]
Format settings: CABAC / 4 Ref Frames
Format settings, CABAC: Yes
Format settings, Reference frames: 4 frames
Codec ID: V_MPEG4/ISO/AVC
Duration: 58 min 22 s
Bit rate: 748 kb/s
Width: 1 280 pixels
Height: 720 pixels
Display aspect ratio: 16:9
Frame rate mode: Constant
Frame rate: 23.976 (24000/1001) FPS
Color space: YUV
Chroma subsampling: 4:2:0
Bit depth: 8 bits
Scan type: Progressive
Bits/(Pixel*Frame): 0.034
Stream size: 312 MiB (61%)
Writing library: x264 core 164
Encoding settings: cabac=1 / ref=2 / deblock=1:0:0 / analyse=0x3:0x113 / me=hex / subme=6 / psy=1 / psy_rd=1.00:0.00 / mixed_ref=1 / me_range=16 / chroma_me=1 / trellis=1 / 8x8dct=1 / cqm=0 / deadzone=21,11 / fast_pskip=1 / chroma_qp_offset=-2 / threads=22 / lookahead_threads=3 / sliced_threads=0 / nr=0 / decimate=1 / interlaced=0 / bluray_compat=0 / constrained_intra=0 / bframes=3 / b_pyramid=2 / b_adapt=1 / b_bias=0 / direct=1 / weightb=1 / open_gop=0 / weightp=1 / keyint=250 / keyint_min=23 / scenecut=40 / intra_refresh=0 / rc_lookahead=30 / rc=crf / mbtree=1 / crf=22.0 / qcomp=0.60 / qpmin=0 / qpmax=69 / qpstep=4 / ip_ratio=1.40 / aq=1:1.00
Default: Yes
Forced: No
Color range: Limited
Color primaries: BT.709
Transfer characteristics: BT.709
Matrix coefficients: BT.709

Audio
ID: 2
Format: AC-3
Format/Info: Audio Coding 3
Commercial name: Dolby Digital
Codec ID: A_AC3
Duration: 58 min 22 s
Bit rate mode: Constant
Bit rate: 448 kb/s
Channel(s): 6 channels
Channel layout: L R C LFE Ls Rs
Sampling rate: 48.0 kHz
Frame rate: 31.250 FPS (1536 SPF)
Bit depth: 32 bits
Compression mode: Lossy
Stream size: 187 MiB (37%)
Writing library: Lavc60.31.102 ac3
Language: English
Service kind: Complete Main
Default: Yes
Forced: No

Text
ID: 3
Format: UTF-8
Codec ID: S_TEXT/UTF8
Codec ID/Info: UTF-8 Plain Text
Duration: 57 min 55 s
Language: English
Default: No
Forced: No

ssl  EZTV RSS EZTV Status | EZTV API | DMCA: [email protected]