eztv.wf | eztvstatus.org
Search title:  
TV Packs only
 

Ren Faire S01E03 Were Done 1080p AMZN WEB-DL DDP5 1 H 264-NTb EZTV

Episode Breakdown
Ren Faire
Ren Faire TV Show S01E03

Season: 1
Episode: 3
Air Date: 9 June, 2024
Download Links
     Torrent Download     Magnet Download
     Anonymous Download
Added 1 month ago by eztv (verified).
Tracker Statistics
Seeds: 5
Peers: 1
Stats generated @ 22:38 on 23rd Jul 2024
Torrent Info
Torrent File: Ren Faire S01E03 Were Done 1080p AMZN WEB-DL DDP5 1 H 264-NTb[EZTVx.to].mkv
Torrent Hash: 16E7C7665EEC7858C894C5803E8741F286DE294A
Filesize: 4.34 GB
Released: 10th Jun 2024

File Format: MKV (Matroska)
Resolution: 1920x1080 px
Aspect Ratio: 16:9
Alternate Releases S L
Ren Faire S01E03 1080p WEB h264-EDITH 22 5
Ren Faire S01E03 XviD-AFG 2 1
Ren Faire S01E03 1080p HEVC x265-MeGusta 27 1
Ren Faire S01E03 Were Done 720p AMZN WEB-DL DDP5 1 H 264-NTb 0 15
Ren Faire S01E03 Were Done 1080p MAX WEB-DL DDP5 1 H 264-NTb 6 1
Ren Faire S01E03 480p x264-RUBiK 3 1

Ren Faire S01E03 - We're Done!

Summary:

Jeff gains the upper hand over Louie. Darla's promotion to co-General Manager leads to disastrous consequences, for both Jeff and herself. George finally lands on the only successor he can trust.



Ren Faire S01E03 Were Done 1080p AMZN WEB-DL DDP5 1 H 264-NTb EZTV
Ren Faire S1E3 Screenshot


General
Unique ID: 14550839859311855386611507221781035111 (0xAF263CB401297714980A371C8003867)
Complete name: Ren Faire S01E03 Were Done 1080p AMZN WEB-DL DDP5 1 H 264-NTb.mkv
Format: Matroska
Format version: Version 4
File size: 4.34 GiB
Duration: 58 min 54 s
Overall bit rate: 10.5 Mb/s
Frame rate: 23.976 FPS
Writing application: mkvmerge v85.0 ('Shame For You') 64-bit
Writing library: libebml v1.4.5 + libmatroska v1.7.1

Video
ID: 1
Format: AVC
Format/Info: Advanced Video Codec
Format profile: High@L4
Format settings: CABAC / 4 Ref Frames
Format settings, CABAC: Yes
Format settings, Reference frames: 4 frames
Codec ID: V_MPEG4/ISO/AVC
Duration: 58 min 54 s
Bit rate mode: Constant
Bit rate: 10 000 kb/s
Width: 1 920 pixels
Height: 800 pixels
Display aspect ratio: 2.40:1
Frame rate mode: Constant
Frame rate: 23.976 (24000/1001) FPS
Color space: YUV
Chroma subsampling: 4:2:0
Bit depth: 8 bits
Scan type: Progressive
Bits/(Pixel*Frame): 0.272
Stream size: 4.07 GiB (94%)
Default: Yes
Forced: No
Color range: Limited
Color primaries: BT.709
Transfer characteristics: BT.709
Matrix coefficients: BT.709

Audio
ID: 2
Format: E-AC-3
Format/Info: Enhanced AC-3
Commercial name: Dolby Digital Plus
Codec ID: A_EAC3
Duration: 58 min 54 s
Bit rate mode: Constant
Bit rate: 640 kb/s
Channel(s): 6 channels
Channel layout: L R C LFE Ls Rs
Sampling rate: 48.0 kHz
Frame rate: 31.250 FPS (1536 SPF)
Compression mode: Lossy
Stream size: 270 MiB (6%)
Language: English (US)
Service kind: Complete Main
Default: Yes
Forced: No

Text #1
ID: 3
Format: UTF-8
Codec ID: S_TEXT/UTF8
Codec ID/Info: UTF-8 Plain Text
Duration: 57 min 16 s
Bit rate: 82 b/s
Frame rate: 0.291 FPS
Count of elements: 1000
Stream size: 34.5 KiB (0%)
Language: English (US)
Default: No
Forced: No

Text #2
ID: 4
Format: UTF-8
Codec ID: S_TEXT/UTF8
Codec ID/Info: UTF-8 Plain Text
Duration: 58 min 39 s
Bit rate: 94 b/s
Frame rate: 0.326 FPS
Count of elements: 1148
Stream size: 40.4 KiB (0%)
Title: SDH
Language: English (US)
Default: No
Forced: No

Text #3
ID: 5
Format: UTF-8
Codec ID: S_TEXT/UTF8
Codec ID/Info: UTF-8 Plain Text
Duration: 57 min 16 s
Bit rate: 73 b/s
Frame rate: 0.302 FPS
Count of elements: 1038
Stream size: 31.0 KiB (0%)
Language: Spanish (Latin America)
Default: No
Forced: No

Text #4
ID: 6
Format: UTF-8
Codec ID: S_TEXT/UTF8
Codec ID/Info: UTF-8 Plain Text
Duration: 58 min 39 s
Bit rate: 85 b/s
Frame rate: 0.334 FPS
Count of elements: 1174
Stream size: 36.9 KiB (0%)
Title: SDH
Language: Spanish (Latin America)
Default: No
Forced: No

ssl  EZTV RSS EZTV Status | EZTV API | DMCA: [email protected]