eztv.wf | eztvstatus.org
Search title:  
TV Packs only
 

On Thin Ice Putin v Greenpeace S01E02 1080p iP WEB-DL AAC2 0 HFR H 264-NGP EZTV

Episode Breakdown
Football Social Daily Liverpool v Man United blockbuster, Wolves v West Brom derby, Lampard on thin ice and Rooney's reverence massive
Football Social Daily Liverpool v Man United blockbuster, Wolves v West Brom derby, Lampard on thin ice and Rooney's reverence massive TV Show S01E02

Season: 1
Episode: 2
Download Links
     Torrent Download     Magnet Download
     Anonymous Download
Added 1 month ago by eztv (verified).
Tracker Statistics
Seeds: 5
Peers: 2
Stats generated @ 07:47 on 23rd Jul 2024
Torrent Info
Torrent File: On Thin Ice Putin v Greenpeace S01E02 1080p iP WEB-DL AAC2 0 HFR H 264-NGP[EZTVx.to].mkv
Torrent Hash: 25AF925CBD2020568F79DCDD216965BB4377648C
Filesize: 1.46 GB
Released: 10th Jun 2024

File Format: MKV (Matroska)
Resolution: 1920x1080 px
Aspect Ratio: 16:9
Alternate Releases S L
On Thin Ice Putin v Greenpeace S01E02 1080p HDTV H264-DARKFLiX 2 1
On Thin Ice Putin v Greenpeace S01E02 XviD-AFG 3 0

Episode Description
On Thin Ice Putin v Greenpeace S01E02 1080p iP WEB-DL AAC2 0 HFR H 264-NGP EZTV
Football Social Daily Liverpool v Man United blockbuster, Wolves v West Brom derby, Lampard on thin ice and Rooney's reverence massive S1E2 Screenshot


General
Unique ID: 78413492129710948112401004545483869164 (0x3AFDE3A620B451118808A4CA81220BEC)
Complete name: On Thin Ice Putin v Greenpeace S01E02 1080p iP WEB-DL AAC2 0 HFR H 264-NGP.mkv
Format: Matroska
Format version: Version 4
File size: 1.46 GiB
Duration: 29 min 3 s
Overall bit rate mode: Variable
Overall bit rate: 7 206 kb/s
Frame rate: 50.000 FPS
Movie name: On Thin Ice: Putin v Greenpeace S01E02
Writing application: mkvmerge v84.0 ('Sleeper') 64-bit
Writing library: libebml v1.4.5 + libmatroska v1.7.1

Video
ID: 1
Format: AVC
Format/Info: Advanced Video Codec
Format profile: [email protected]
Format settings: CABAC / 4 Ref Frames
Format settings, CABAC: Yes
Format settings, Reference frames: 4 frames
Codec ID: V_MPEG4/ISO/AVC
Duration: 29 min 3 s
Bit rate mode: Variable
Bit rate: 7 074 kb/s
Maximum bit rate: 12.0 Mb/s
Width: 1 920 pixels
Height: 1 080 pixels
Display aspect ratio: 16:9
Frame rate mode: Constant
Frame rate: 50.000 FPS
Color space: YUV
Chroma subsampling: 4:2:0
Bit depth: 8 bits
Scan type: Progressive
Bits/(Pixel*Frame): 0.068
Stream size: 1.44 GiB (98%)
Language: English
Default: Yes
Forced: No
Color range: Limited
Color primaries: BT.709
Transfer characteristics: BT.709
Matrix coefficients: BT.709

Audio
ID: 2
Format: AAC LC
Format/Info: Advanced Audio Codec Low Complexity
Codec ID: A_AAC-2
Duration: 29 min 3 s
Bit rate: 128 kb/s
Channel(s): 2 channels
Channel layout: L R
Sampling rate: 48.0 kHz
Frame rate: 46.875 FPS (1024 SPF)
Compression mode: Lossy
Stream size: 26.6 MiB (2%)
Language: English
Default: Yes
Forced: No

Text #1
ID: 3
Format: UTF-8
Codec ID: S_TEXT/UTF8
Codec ID/Info: UTF-8 Plain Text
Duration: 28 min 39 s
Bit rate: 78 b/s
Frame rate: 0.251 FPS
Count of elements: 431
Stream size: 16.5 KiB (0%)
Language: English
Default: No
Forced: No

Text #2
ID: 4
Format: UTF-8
Codec ID: S_TEXT/UTF8
Codec ID/Info: UTF-8 Plain Text
Duration: 28 min 39 s
Bit rate: 78 b/s
Frame rate: 0.254 FPS
Count of elements: 436
Stream size: 16.5 KiB (0%)
Title: SDH
Language: English
Default: No
Forced: No
ssl  EZTV RSS EZTV Status | EZTV API | DMCA: [email protected]