eztv.wf | eztvstatus.org
Search title:  
TV Packs only
 

Ren Faire S01E02 720p AMZN WEB-DL DDP5 1 H 264-NGP EZTV

Episode Breakdown
Ren Faire
Ren Faire TV Show S01E02

Season: 1
Episode: 2
Air Date: 9 June, 2024
Download Links
     Torrent Download     Magnet Download
     Anonymous Download
Added 1 month ago by eztv (verified).
Tracker Statistics
Seeds: 15
Peers: 6
Stats generated @ 22:50 on 23rd Jul 2024
Torrent Info
Torrent File: Ren Faire S01E02 720p AMZN WEB-DL DDP5 1 H 264-NGP[EZTVx.to].mkv
Torrent Hash: 536CC19D57075EAB130C5C7947C1F961B3BBC90B
Filesize: 2.28 GB
Released: 11th Jun 2024

File Format: MKV (Matroska)
Resolution: 1280x720 px
Aspect Ratio: 16:9
Alternate Releases S L
Ren Faire S01E02 Make Big Choices 1080p MAX WEB-DL DDP5 1 H 264-NTb 57 7
Ren Faire S01E02 480p x264-RUBiK 7 0

Ren Faire S01E02 - Make Big Choices

Summary:

King George goes on an unsuccessful date. Jeff struggles to thwart Louie's bid for the crown. Darla Smith, a former elephant trainer, enters the fray with an agenda of her own.



Ren Faire S01E02 720p AMZN WEB-DL DDP5 1 H 264-NGP EZTV
Ren Faire S1E2 Screenshot


General
Unique ID: 202205226542709587989306454475918928943 (0x981F4F60D07E3F5675BC88FC9C2DEC2F)
Complete name: Ren Faire S01E02 720p AMZN WEB-DL DDP5 1 H 264-NGP.mkv
Format: Matroska
Format version: Version 4
File size: 2.28 GiB
Duration: 54 min 15 s
Overall bit rate mode: Variable
Overall bit rate: 6 027 kb/s
Frame rate: 23.976 FPS
Movie name: Make Big Choices
Description: King George goes on an unsuccessful date, while Jeff struggles to thwart LouieG s bid for the crown G and a wild card enters the fray
Writing application: Lavf60.21.101
Writing library: Lavf60.21.101
ErrorDetectionType: Per level 1
DATE: 2024
EPISODE_ID: 2
SEASON_NUMBER: 1
SHOW: Ren Faire

Video
ID: 1
Format: AVC
Format/Info: Advanced Video Codec
Format profile: [email protected]
Format settings: CABAC / 4 Ref Frames
Format settings, CABAC: Yes
Format settings, Reference frames: 4 frames
Codec ID: V_MPEG4/ISO/AVC
Duration: 54 min 15 s
Bit rate mode: Variable
Bit rate: 5 651 kb/s
Maximum bit rate: 6 200 kb/s
Width: 1 600 pixels
Height: 666 pixels
Display aspect ratio: 2.40:1
Frame rate mode: Constant
Frame rate: 23.976 (24000/1001) FPS
Color space: YUV
Chroma subsampling: 4:2:0
Bit depth: 8 bits
Scan type: Progressive
Bits/(Pixel*Frame): 0.221
Stream size: 2.14 GiB (94%)
Writing library: x264 core 164
Encoding settings: cabac=1 / ref=4 / deblock=1:0:0 / analyse=0x3:0x133 / me=umh / subme=10 / psy=1 / psy_rd=1.00:0.00 / mixed_ref=1 / me_range=24 / chroma_me=1 / trellis=2 / 8x8dct=1 / cqm=0 / deadzone=21,11 / fast_pskip=1 / chroma_qp_offset=-2 / threads=21 / lookahead_threads=1 / sliced_threads=0 / nr=0 / decimate=1 / interlaced=0 / bluray_compat=0 / stitchable=1 / constrained_intra=0 / bframes=3 / b_pyramid=2 / b_adapt=2 / b_bias=0 / direct=3 / weightb=1 / open_gop=0 / weightp=2 / keyint=96 / keyint_min=49 / scenecut=0 / intra_refresh=0 / rc_lookahead=96 / rc=crf / mbtree=1 / crf=21.0 / qcomp=0.60 / qpmin=0 / qpmax=69 / qpstep=4 / vbv_maxrate=6200 / vbv_bufsize=24800 / crf_max=0.0 / nal_hrd=vbr / filler=0 / ip_ratio=1.40 / aq=1:1.00
Default: Yes
Forced: No
Color range: Limited
Color primaries: BT.709
Transfer characteristics: BT.709
Matrix coefficients: BT.709
VENDOR_ID: 0[0][0][0]

Audio
ID: 2
Format: E-AC-3
Format/Info: Enhanced AC-3
Commercial name: Dolby Digital Plus
Codec ID: A_EAC3
Duration: 54 min 15 s
Bit rate mode: Constant
Bit rate: 256 kb/s
Channel(s): 6 channels
Channel layout: L R C LFE Ls Rs
Sampling rate: 48.0 kHz
Frame rate: 31.250 FPS (1536 SPF)
Bit depth: 32 bits
Compression mode: Lossy
Stream size: 99.3 MiB (4%)
Language: English
Service kind: Complete Main
Default: Yes
Forced: No
VENDOR_ID: 0[0][0][0]

Text
ID: 3
Format: ASS
Codec ID: S_TEXT/ASS
Codec ID/Info: Advanced Sub Station Alpha
Duration: 54 min 10 s
Compression mode: Lossless
Writing library: Lavc60.40.100 ssa
Default: Yes
Forced: No

ssl  EZTV RSS EZTV Status | EZTV API | DMCA: [email protected]